Sign Up   |   Sign In  
The Great NorthDune: Part TwoGrimsburgBeacon 23The ChannelTrinket BoxGuardians of the Galaxy Vol. 3ShogunCold JusticeThe Bellboy and the PlaygirlsThis TownThere's Still TomorrowParishSaturday Night LiveNinja KamuiFantastic Four: Rise of the Silver SurferThe Taste of ThingsLegend of the Lost LocketFalloutGrey's AnatomyImmoral WomenS.W.A.T.WillowScrambledFBI

Announcements

03/28

2024

1

Comments

We Were The Lucky Ones S01E02 Lvov 1080p DSNP WEB-DL DDP5 1 H 264-FLUX
[RR/NF]
Size: 2.1GB mkv H264 (HIGH) / EAC3  HD  1920x1080

We Were the Lucky Ones
File Information
[img]http://lookpic.com/cdn/i2/t/0328202406143873-1.jpg[/img]
[img]http://lookpic.com/cdn/i2/t/0328202406143873-2.jpg[/img]
[img]http://lookpic.com/cdn/i2/t/0328202406143873-3.jpg[/img]

General
Unique ID                                : 86698856026302280370355342928638168673 (0x413997A0BE9B79A283048503B674CE61)
Complete name                            : We Were The Lucky Ones S01E02 Lvov 1080p DSNP WEB-DL DDP5 1 H 264-FLUX.mkv
Format                                   : Matroska
Format version                           : Version 4
File size                                : 2.10 GiB
Duration                                 : 52 min 54 s
Overall bit rate mode                    : Variable
Overall bit rate                         : 5 692 kb/s
Frame rate                               : 23.976 FPS
Writing application                      : mkvmerge v82.0 ('I'm The President') 64-bit
Writing library                          : libebml v1.4.5 + libmatroska v1.7.1

Video
ID                                       : 1
Format                                   : AVC
Format/Info                              : Advanced Video Codec
Format profile                           : High@L4
Format settings                          : CABAC / 4 Ref Frames
Format settings, CABAC                   : Yes
Format settings, Reference frames        : 4 frames
Codec ID                                 : V_MPEG4/ISO/AVC
Duration                                 : 52 min 54 s
Bit rate mode                            : Variable
Bit rate                                 : 5 433 kb/s
Maximum bit rate                         : 12.7 Mb/s
Width                                    : 1 920 pixels
Height                                   : 1 080 pixels
Display aspect ratio                     : 16:9
Frame rate mode                          : Constant
Frame rate                               : 23.976 (24000/1001) FPS
Color space                              : YUV
Chroma subsampling                       : 4:2:0
Bit depth                                : 8 bits
Scan type                                : Progressive
Bits/(Pixel*Frame)                       : 0.109
Time code of first frame                 : 00:00:00:0000000000
Stream size                              : 2.01 GiB (95%)
Language                                 : English
Default                                  : Yes
Forced                                   : No
Color range                              : Limited
Color primaries                          : BT.709
Transfer characteristics                 : BT.709
Matrix coefficients                      : BT.709

Audio
ID                                       : 2
Format                                   : E-AC-3
Format/Info                              : Enhanced AC-3
Commercial name                          : Dolby Digital Plus
Codec ID                                 : A_EAC3
Duration                                 : 52 min 54 s
Bit rate mode                            : Constant
Bit rate                                 : 256 kb/s
Channel(s)                               : 6 channels
Channel layout                           : L R C LFE Ls Rs
Sampling rate                            : 48.0 kHz
Frame rate                               : 31.250 FPS (1536 SPF)
Compression mode                         : Lossy
Stream size                              : 96.9 MiB (4%)
Language                                 : English
Service kind                             : Complete Main
Default                                  : Yes
Forced                                   : No

Text #1
ID                                       : 3
Format                                   : UTF-8
Codec ID                                 : S_TEXT/UTF8
Codec ID/Info                            : UTF-8 Plain Text
Duration                                 : 51 min 48 s
Bit rate                                 : 56 b/s
Frame rate                               : 0.207 FPS
Count of elements                        : 644
Stream size                              : 21.4 KiB (0%)
Language                                 : English
Default                                  : No
Forced                                   : No

Text #2
ID                                       : 4
Format                                   : UTF-8
Codec ID                                 : S_TEXT/UTF8
Codec ID/Info                            : UTF-8 Plain Text
Duration                                 : 52 min 49 s
Bit rate                                 : 67 b/s
Frame rate                               : 0.259 FPS
Count of elements                        : 822
Stream size                              : 26.1 KiB (0%)
Title                                    : SDH
Language                                 : English
Default                                  : No
Forced                                   : No

Text #3
ID                                       : 5
Format                                   : UTF-8
Codec ID                                 : S_TEXT/UTF8
Codec ID/Info                            : UTF-8 Plain Text
Duration                                 : 51 min 48 s
Bit rate                                 : 57 b/s
Frame rate                               : 0.205 FPS
Count of elements                        : 638
Stream size                              : 21.9 KiB (0%)
Title                                    : Latin American
Language                                 : Spanish (Latin America)
Default                                  : No
Forced                                   : No

Menu
00:51:54.319                             : en:Credits



Download
File Container: MKV
Video/Audio Codec: H264 (HIGH) EAC3
Video Resolution: 1920x1080

1 Response to "[RR/NF] We Were The Lucky Ones S01E02 Lvov 1080p DSNP WEB-DL DDP5 1 H 264-FLUX (2.1GB)"
03/28/24
08:53:49
ReadyPlayerOne

Thank You

Please Login to post a comment.
If you don't have any account, please Register.
  • Subscribe my Feeds
  • Facebook
Encoding Queue:  x264  x265

Latest Episodes

Popular Movies and TV Shows

  • The Great North
  • Dune: Part Two
  • Grimsburg
  • Beacon 23
  • The Channel
  • Trinket Box
  • Guardians of the Galaxy Vol. 3
  • Shogun
  • Cold Justice
  • The Bellboy and the Playgirls
  • This Town
  • There's Still Tomorrow
  • Parish
  • Saturday Night Live
  • Ninja Kamui
  • Fantastic Four: Rise of the Silver Surfer
  • The Taste of Things
  • Legend of the Lost Locket
  • Fallout
  • Grey's Anatomy
  • Immoral Women
  • S.W.A.T.
  • Willow
  • Scrambled
  • FBI

Recent Comments

  • mentalityx:

    Rad bloke

  • DownloadHostInspector:

    so far these RMTeam uploads always have a working link. DownloadHostInspector approved!

  • DownloadHostInspector:

    ah yes, this upload has a host that works. clicknupload. DownloadHostInspector approved!

  • DownloadHostInspector: Why are all the download hosts trash? none of them let you download it
  • Qua4ratic:

    clicknupload link plz

  • ppoo:

    Please, can you add "Real Time with Bill Maher S22E11" ??

  • theahtisham:

    Kindly upload Ep. 3 and 4 as well.

  • Kudzu: Update on sound issue, File's codec info says stereo but is only a the left channel If I switch i...
  • Admin:

    kang
    Getting error while encoding, sorry

Archives