Sign Up   |   Sign In  
The Great NorthDune: Part TwoBeacon 23Trinket BoxThe ChannelHazbin HotelShogunThis TownGuardians of the Galaxy Vol. 3The Bellboy and the PlaygirlsResident AlienDangerous MovesParishSaturday Night LiveNinja KamuiFantastic Four: Rise of the Silver SurferThe Taste of ThingsLegend of the Lost LocketFalloutImmoral WomenGrey's AnatomyS.W.A.T.WillowScrambledFBI

Announcements

03/31

2024

No

Comments

Wonderful World S01E10 720p DSNP WEB-DL AAC2 0 H 264-FLUX
[RR/NF/CU]
Size: 1.3GB mkv H264 (HIGH) / AAC (LC)  HD  1280x720

Wonderful World
  • Wonderful World (2024-)
  • Genre: Drama | Thriller
  • Original Language: Korean
  • Storyline: Psychology professor and writer Eun Soo Hyun's world shatters when her son suffers an unpunished injustice. Seeking vengeance, she unexpectedly discovers solace helping others embroiled in comparable cryptic cases.
File Information
[img]http://lookpic.com/cdn/i2/t/0330202423443240-1.jpg[/img]
[img]http://lookpic.com/cdn/i2/t/0330202423443240-2.jpg[/img]
[img]http://lookpic.com/cdn/i2/t/0330202423443240-3.jpg[/img]

General
Unique ID                                : 115848006137262230098621062326288911630 (0x572783AFD4F37B20DA447A09B3DC0D0E)
Complete name                            : Wonderful World S01E10 720p DSNP WEB-DL AAC2 0 H 264-FLUX.mkv
Format                                   : Matroska
Format version                           : Version 4
File size                                : 1.31 GiB
Duration                                 : 1 h 3 min
Overall bit rate mode                    : Variable
Overall bit rate                         : 2 939 kb/s
Frame rate                               : 23.976 FPS
Writing application                      : mkvmerge v77.0 ('Elemental') 64-bit
Writing library                          : libebml v1.4.4 + libmatroska v1.7.1

Video
ID                                       : 1
Format                                   : AVC
Format/Info                              : Advanced Video Codec
Format profile                           : [email protected]
Format settings                          : CABAC / 4 Ref Frames
Format settings, CABAC                   : Yes
Format settings, Reference frames        : 4 frames
Codec ID                                 : V_MPEG4/ISO/AVC
Duration                                 : 1 h 3 min
Bit rate mode                            : Variable
Bit rate                                 : 2 811 kb/s
Maximum bit rate                         : 6 375 kb/s
Width                                    : 1 280 pixels
Height                                   : 720 pixels
Display aspect ratio                     : 16:9
Frame rate mode                          : Constant
Frame rate                               : 23.976 (24000/1001) FPS
Color space                              : YUV
Chroma subsampling                       : 4:2:0
Bit depth                                : 8 bits
Scan type                                : Progressive
Bits/(Pixel*Frame)                       : 0.127
Time code of first frame                 : 00:00:00:0000000000
Stream size                              : 1.25 GiB (96%)
Default                                  : Yes
Forced                                   : No
Color range                              : Limited
Color primaries                          : BT.709
Transfer characteristics                 : BT.709
Matrix coefficients                      : BT.709

Audio
ID                                       : 2
Format                                   : AAC LC
Format/Info                              : Advanced Audio Codec Low Complexity
Codec ID                                 : A_AAC-2
Duration                                 : 1 h 3 min
Bit rate                                 : 125 kb/s
Channel(s)                               : 2 channels
Channel layout                           : L R
Sampling rate                            : 48.0 kHz
Frame rate                               : 46.875 FPS (1024 SPF)
Compression mode                         : Lossy
Stream size                              : 57.2 MiB (4%)
Language                                 : Korean
Default                                  : Yes
Forced                                   : No

Text #1
ID                                       : 3
Format                                   : UTF-8
Codec ID                                 : S_TEXT/UTF8
Codec ID/Info                            : UTF-8 Plain Text
Duration                                 : 5 s 922 ms
Bit rate                                 : 14 b/s
Frame rate                               : 0.169 FPS
Count of elements                        : 1
Stream size                              : 11.0 Bytes (0%)
Title                                    : Forced
Language                                 : Korean
Default                                  : Yes
Forced                                   : Yes

Text #2
ID                                       : 4
Format                                   : UTF-8
Codec ID                                 : S_TEXT/UTF8
Codec ID/Info                            : UTF-8 Plain Text
Duration                                 : 1 h 2 min
Bit rate                                 : 31 b/s
Frame rate                               : 0.144 FPS
Count of elements                        : 543
Stream size                              : 14.6 KiB (0%)
Language                                 : Korean
Default                                  : No
Forced                                   : No

Text #3
ID                                       : 5
Format                                   : UTF-8
Codec ID                                 : S_TEXT/UTF8
Codec ID/Info                            : UTF-8 Plain Text
Duration                                 : 1 h 3 min
Bit rate                                 : 45 b/s
Frame rate                               : 0.188 FPS
Count of elements                        : 716
Stream size                              : 21.0 KiB (0%)
Title                                    : SDH
Language                                 : Korean
Default                                  : No
Forced                                   : No

Text #4
ID                                       : 6
Format                                   : UTF-8
Codec ID                                 : S_TEXT/UTF8
Codec ID/Info                            : UTF-8 Plain Text
Duration                                 : 1 h 3 min
Bit rate                                 : 29 b/s
Frame rate                               : 0.140 FPS
Count of elements                        : 531
Stream size                              : 13.6 KiB (0%)
Language                                 : English
Default                                  : No
Forced                                   : No

Text #5
ID                                       : 7
Format                                   : UTF-8
Codec ID                                 : S_TEXT/UTF8
Codec ID/Info                            : UTF-8 Plain Text
Duration                                 : 1 h 3 min
Bit rate                                 : 39 b/s
Frame rate                               : 0.189 FPS
Count of elements                        : 723
Stream size                              : 18.6 KiB (0%)
Title                                    : SDH
Language                                 : English
Default                                  : No
Forced                                   : No

Text #6
ID                                       : 8
Format                                   : UTF-8
Codec ID                                 : S_TEXT/UTF8
Codec ID/Info                            : UTF-8 Plain Text
Duration                                 : 1 h 3 min
Bit rate                                 : 30 b/s
Frame rate                               : 0.134 FPS
Count of elements                        : 508
Stream size                              : 14.0 KiB (0%)
Language                                 : Japanese
Default                                  : No
Forced                                   : No

Text #7
ID                                       : 9
Format                                   : UTF-8
Codec ID                                 : S_TEXT/UTF8
Codec ID/Info                            : UTF-8 Plain Text
Duration                                 : 1 h 3 min
Bit rate                                 : 26 b/s
Frame rate                               : 0.140 FPS
Count of elements                        : 533
Stream size                              : 12.5 KiB (0%)
Title                                    : Traditional
Language                                 : Chinese (Traditional)
Default                                  : No
Forced                                   : No

Menu
00:00:00.000                             : en:Chapter 01
00:00:04.004                             : en:Intro
00:00:42.000                             : en:Chapter 03
00:06:55.958                             : en:Chapter 04
00:16:38.832                             : en:Chapter 05
00:31:13.874                             : en:Chapter 06
00:40:48.407                             : en:Chapter 07
00:49:57.122                             : en:Chapter 08
00:58:06.904                             : en:Chapter 09
01:03:11.667                             : en:Credits



Download
File Container: MKV
Video/Audio Codec: H264 (HIGH) AAC (LC)
Video Resolution: 1280x720
Please Login to post a comment.
If you don't have any account, please Register.
  • Subscribe my Feeds
  • Facebook
Encoding Queue:  x264  x265

Latest Episodes

Popular Movies and TV Shows

  • The Great North
  • Dune: Part Two
  • Beacon 23
  • Trinket Box
  • The Channel
  • Hazbin Hotel
  • Shogun
  • This Town
  • Guardians of the Galaxy Vol. 3
  • The Bellboy and the Playgirls
  • Resident Alien
  • Dangerous Moves
  • Parish
  • Saturday Night Live
  • Ninja Kamui
  • Fantastic Four: Rise of the Silver Surfer
  • The Taste of Things
  • Legend of the Lost Locket
  • Fallout
  • Immoral Women
  • Grey's Anatomy
  • S.W.A.T.
  • Willow
  • Scrambled
  • FBI

Recent Comments

  • mentalityx:

    Rad bloke

  • DownloadHostInspector:

    so far these RMTeam uploads always have a working link. DownloadHostInspector approved!

  • DownloadHostInspector:

    ah yes, this upload has a host that works. clicknupload. DownloadHostInspector approved!

  • DownloadHostInspector: Why are all the download hosts trash? none of them let you download it
  • Qua4ratic:

    clicknupload link plz

  • ppoo:

    Please, can you add "Real Time with Bill Maher S22E11" ??

  • theahtisham:

    Kindly upload Ep. 3 and 4 as well.

  • Kudzu: Update on sound issue, File's codec info says stereo but is only a the left channel If I switch i...
  • Admin:

    kang
    Getting error while encoding, sorry

Archives