Sign Up   |   Sign In  
SistasThe ChosenThe ChiI Saw the TV GlowBratsInside Out 2The Bold and the BeautifulShoresyThe Big CigarNotas sobre un veranoThe EgyptianThe PrestigeWWE NXTThe BoysWalkerMower MinionsAssimilateFentasyEvilBridgertonCriminal MindsIn the Line of FireThe Artifice GirlLamp LifeThe Daily Show

Announcements

03/29

2024

1

Comments

Tokyo Vice S02E09 Consequences 720p AMZN WEB-DL DDP5 1 Atmos H 264-FLUX
[RR/NF/CU]
Size: 1.1GB mkv H264 (HIGH) / EAC3  HD  1280x640

Tokyo Vice
File Information
[img]http://lookpic.com/cdn/i2/t/0329202408542573-1.jpg[/img]
[img]http://lookpic.com/cdn/i2/t/0329202408542573-2.jpg[/img]
[img]http://lookpic.com/cdn/i2/t/0329202408542573-3.jpg[/img]

General
Unique ID                                : 211884773231821974761348116507567075021 (0x9F6785E03A2DDCC8D096CF1610002ECD)
Complete name                            : Tokyo Vice S02E09 Consequences 720p AMZN WEB-DL DDP5 1 Atmos H 264-FLUX.mkv
Format                                   : Matroska
Format version                           : Version 4
File size                                : 1.13 GiB
Duration                                 : 50 min 49 s
Overall bit rate                         : 3 169 kb/s
Frame rate                               : 23.976 FPS
Writing application                      : mkvmerge v81.0 ('Milliontown') 64-bit
Writing library                          : libebml v1.4.4 + libmatroska v1.7.1

Video
ID                                       : 1
Format                                   : AVC
Format/Info                              : Advanced Video Codec
Format profile                           : [email protected]
Format settings                          : CABAC / 4 Ref Frames
Format settings, CABAC                   : Yes
Format settings, Reference frames        : 4 frames
Codec ID                                 : V_MPEG4/ISO/AVC
Duration                                 : 50 min 49 s
Bit rate mode                            : Constant
Bit rate                                 : 2 527 kb/s
Nominal bit rate                         : 4 000 kb/s
Width                                    : 1 280 pixels
Height                                   : 640 pixels
Display aspect ratio                     : 2.000
Frame rate mode                          : Constant
Frame rate                               : 23.976 (24000/1001) FPS
Color space                              : YUV
Chroma subsampling                       : 4:2:0
Bit depth                                : 8 bits
Scan type                                : Progressive
Bits/(Pixel*Frame)                       : 0.129
Stream size                              : 919 MiB (80%)
Language                                 : English (US)
Default                                  : Yes
Forced                                   : No
Color range                              : Limited
Color primaries                          : BT.709
Transfer characteristics                 : BT.709
Matrix coefficients                      : BT.709

Audio
ID                                       : 2
Format                                   : E-AC-3 JOC
Format/Info                              : Enhanced AC-3 with Joint Object Coding
Commercial name                          : Dolby Digital Plus with Dolby Atmos
Codec ID                                 : A_EAC3
Duration                                 : 50 min 45 s
Bit rate mode                            : Constant
Bit rate                                 : 640 kb/s
Channel(s)                               : 6 channels
Channel layout                           : L R C LFE Ls Rs
Sampling rate                            : 48.0 kHz
Frame rate                               : 31.250 FPS (1536 SPF)
Compression mode                         : Lossy
Delay relative to video                  : 4 s 27 ms
Stream size                              : 232 MiB (20%)
Language                                 : English (US)
Service kind                             : Complete Main
Default                                  : Yes
Forced                                   : No
Complexity index                         : 16
Number of dynamic objects                : 15
Bed channel count                        : 1 channel
Bed channel configuration                : LFE

Text #1
ID                                       : 3
Format                                   : UTF-8
Codec ID                                 : S_TEXT/UTF8
Codec ID/Info                            : UTF-8 Plain Text
Duration                                 : 43 min 28 s
Bit rate                                 : 22 b/s
Frame rate                               : 0.085 FPS
Count of elements                        : 222
Stream size                              : 7.18 KiB (0%)
Language                                 : English (US)
Default                                  : No
Forced                                   : No

Text #2
ID                                       : 4
Format                                   : UTF-8
Codec ID                                 : S_TEXT/UTF8
Codec ID/Info                            : UTF-8 Plain Text
Duration                                 : 49 min 44 s
Bit rate                                 : 25 b/s
Frame rate                               : 0.125 FPS
Count of elements                        : 373
Stream size                              : 9.20 KiB (0%)
Title                                    : SDH
Language                                 : English (US)
Default                                  : No
Forced                                   : No

Text #3
ID                                       : 5
Format                                   : UTF-8
Codec ID                                 : S_TEXT/UTF8
Codec ID/Info                            : UTF-8 Plain Text
Duration                                 : 49 min 16 s
Bit rate                                 : 51 b/s
Frame rate                               : 0.213 FPS
Count of elements                        : 629
Stream size                              : 18.5 KiB (0%)
Title                                    : Latin American
Language                                 : Spanish (Latin America)
Default                                  : No
Forced                                   : No

Text #4
ID                                       : 6
Format                                   : UTF-8
Codec ID                                 : S_TEXT/UTF8
Codec ID/Info                            : UTF-8 Plain Text
Duration                                 : 49 min 16 s
Bit rate                                 : 50 b/s
Frame rate                               : 0.213 FPS
Count of elements                        : 629
Stream size                              : 18.4 KiB (0%)
Title                                    : Brazilian
Language                                 : Portuguese (BR)
Default                                  : No
Forced                                   : No

Menu
00:00:04.027                             : en:Scene 01
00:02:44.020                             : en:Intro
00:03:58.053                             : en:Scene 02
00:52:29.919                             : en:Credits



Download
File Container: MKV
Video/Audio Codec: H264 (HIGH) EAC3
Video Resolution: 1280x640

1 Response to "[RR/NF/CU] Tokyo Vice S02E09 Consequences 720p AMZN WEB-DL DDP5 1 Atmos H 264-FLUX (1.1GB)"
03/29/24
13:34:53
ReadyPlayerOne

Thank you!

Please Login to post a comment.
If you don't have any account, please Register.
  • Subscribe my Feeds
  • Facebook
Encoding Queue:  x264  x265

Latest Episodes

Popular Movies and TV Shows

  • Sistas
  • The Chosen
  • The Chi
  • I Saw the TV Glow
  • Brats
  • Inside Out 2
  • The Bold and the Beautiful
  • Shoresy
  • The Big Cigar
  • Notas sobre un verano
  • The Egyptian
  • The Prestige
  • WWE NXT
  • The Boys
  • Walker
  • Mower Minions
  • Assimilate
  • Fentasy
  • Evil
  • Bridgerton
  • Criminal Minds
  • In the Line of Fire
  • The Artifice Girl
  • Lamp Life
  • The Daily Show

Recent Comments

Archives