Sign Up   |   Sign In  
The Great NorthDune: Part TwoTrinket BoxBeacon 23The ChannelCold JusticeShogunThis TownThe Bellboy and the PlaygirlsGuardians of the Galaxy Vol. 3DickinsonYannickParishSaturday Night LiveNinja KamuiFantastic Four: Rise of the Silver SurferThe Taste of ThingsLegend of the Lost LocketFalloutImmoral WomenGrey's AnatomyS.W.A.T.WillowScrambledFBI

Announcements

03/29

2024

No

Comments

The Baxters 2024 S03E12 Return Together 1080p AMZN WEB-DL DDP5 1 H 264-NTb
[RR/NF/CU]
Size: 1.7GB mkv H264 (HIGH) / EAC3  HD  1920x960

The Baxters
File Information
[img]http://lookpic.com/cdn/i2/t/0329202405100286-1.jpg[/img]
[img]http://lookpic.com/cdn/i2/t/0329202405100286-2.jpg[/img]
[img]http://lookpic.com/cdn/i2/t/0329202405100286-3.jpg[/img]

General
Unique ID                                : 106662121408604152238214346164627795413 (0x503E609A5ADE96F77870292323936DD5)
Complete name                            : The Baxters 2024 S03E12 Return Together 1080p AMZN WEB-DL DDP5 1 H 264-NTb.mkv
Format                                   : Matroska
Format version                           : Version 4
File size                                : 1.73 GiB
Duration                                 : 28 min 39 s
Overall bit rate                         : 8 643 kb/s
Frame rate                               : 23.976 FPS
Writing application                      : mkvmerge v81.0 ('Milliontown') 64-bit
Writing library                          : libebml v1.4.4 + libmatroska v1.7.1

Video
ID                                       : 1
Format                                   : AVC
Format/Info                              : Advanced Video Codec
Format profile                           : High@L4
Format settings                          : CABAC / 4 Ref Frames
Format settings, CABAC                   : Yes
Format settings, Reference frames        : 4 frames
Codec ID                                 : V_MPEG4/ISO/AVC
Duration                                 : 28 min 39 s
Bit rate mode                            : Constant
Bit rate                                 : 7 999 kb/s
Nominal bit rate                         : 10 000 kb/s
Width                                    : 1 920 pixels
Height                                   : 960 pixels
Display aspect ratio                     : 2.000
Frame rate mode                          : Constant
Frame rate                               : 23.976 (24000/1001) FPS
Color space                              : YUV
Chroma subsampling                       : 4:2:0
Bit depth                                : 8 bits
Scan type                                : Progressive
Bits/(Pixel*Frame)                       : 0.181
Stream size                              : 1.60 GiB (93%)
Default                                  : Yes
Forced                                   : No
Color range                              : Limited
Color primaries                          : BT.709
Transfer characteristics                 : BT.709
Matrix coefficients                      : BT.709

Audio
ID                                       : 2
Format                                   : E-AC-3
Format/Info                              : Enhanced AC-3
Commercial name                          : Dolby Digital Plus
Codec ID                                 : A_EAC3
Duration                                 : 28 min 39 s
Bit rate mode                            : Constant
Bit rate                                 : 640 kb/s
Channel(s)                               : 6 channels
Channel layout                           : L R C LFE Ls Rs
Sampling rate                            : 48.0 kHz
Frame rate                               : 31.250 FPS (1536 SPF)
Compression mode                         : Lossy
Stream size                              : 131 MiB (7%)
Language                                 : English (US)
Service kind                             : Complete Main
Default                                  : Yes
Forced                                   : No

Text #1
ID                                       : 3
Format                                   : UTF-8
Codec ID                                 : S_TEXT/UTF8
Codec ID/Info                            : UTF-8 Plain Text
Duration                                 : 27 min 27 s
Bit rate                                 : 58 b/s
Frame rate                               : 0.229 FPS
Count of elements                        : 378
Stream size                              : 11.9 KiB (0%)
Language                                 : English (US)
Default                                  : No
Forced                                   : No

Text #2
ID                                       : 4
Format                                   : UTF-8
Codec ID                                 : S_TEXT/UTF8
Codec ID/Info                            : UTF-8 Plain Text
Duration                                 : 27 min 39 s
Bit rate                                 : 63 b/s
Frame rate                               : 0.248 FPS
Count of elements                        : 411
Stream size                              : 12.8 KiB (0%)
Title                                    : SDH
Language                                 : English (US)
Default                                  : No
Forced                                   : No

Text #3
ID                                       : 5
Format                                   : UTF-8
Codec ID                                 : S_TEXT/UTF8
Codec ID/Info                            : UTF-8 Plain Text
Duration                                 : 28 min 22 s
Bit rate                                 : 52 b/s
Frame rate                               : 0.194 FPS
Count of elements                        : 330
Stream size                              : 10.9 KiB (0%)
Language                                 : German (DE)
Default                                  : No
Forced                                   : No

Text #4
ID                                       : 6
Format                                   : UTF-8
Codec ID                                 : S_TEXT/UTF8
Codec ID/Info                            : UTF-8 Plain Text
Duration                                 : 28 min 22 s
Bit rate                                 : 52 b/s
Frame rate                               : 0.194 FPS
Count of elements                        : 331
Stream size                              : 11.0 KiB (0%)
Title                                    : Spanish (Latin America)
Language                                 : Spanish (Latin America)
Default                                  : No
Forced                                   : No

Text #5
ID                                       : 7
Format                                   : UTF-8
Codec ID                                 : S_TEXT/UTF8
Codec ID/Info                            : UTF-8 Plain Text
Duration                                 : 28 min 22 s
Bit rate                                 : 50 b/s
Frame rate                               : 0.194 FPS
Count of elements                        : 331
Stream size                              : 10.4 KiB (0%)
Title                                    : Spanish (Spain)
Language                                 : Spanish (ES)
Default                                  : No
Forced                                   : No

Text #6
ID                                       : 8
Format                                   : UTF-8
Codec ID                                 : S_TEXT/UTF8
Codec ID/Info                            : UTF-8 Plain Text
Duration                                 : 28 min 22 s
Bit rate                                 : 55 b/s
Frame rate                               : 0.194 FPS
Count of elements                        : 330
Stream size                              : 11.5 KiB (0%)
Language                                 : French (FR)
Default                                  : No
Forced                                   : No

Text #7
ID                                       : 9
Format                                   : UTF-8
Codec ID                                 : S_TEXT/UTF8
Codec ID/Info                            : UTF-8 Plain Text
Duration                                 : 28 min 22 s
Bit rate                                 : 128 b/s
Frame rate                               : 0.194 FPS
Count of elements                        : 331
Stream size                              : 26.6 KiB (0%)
Language                                 : Hindi (IN)
Default                                  : No
Forced                                   : No

Text #8
ID                                       : 10
Format                                   : UTF-8
Codec ID                                 : S_TEXT/UTF8
Codec ID/Info                            : UTF-8 Plain Text
Duration                                 : 28 min 22 s
Bit rate                                 : 51 b/s
Frame rate                               : 0.194 FPS
Count of elements                        : 331
Stream size                              : 10.7 KiB (0%)
Language                                 : Italian (IT)
Default                                  : No
Forced                                   : No

Text #9
ID                                       : 11
Format                                   : UTF-8
Codec ID                                 : S_TEXT/UTF8
Codec ID/Info                            : UTF-8 Plain Text
Duration                                 : 28 min 22 s
Bit rate                                 : 45 b/s
Frame rate                               : 0.217 FPS
Count of elements                        : 369
Stream size                              : 9.56 KiB (0%)
Language                                 : Japanese (JP)
Default                                  : No
Forced                                   : No

Text #10
ID                                       : 12
Format                                   : UTF-8
Codec ID                                 : S_TEXT/UTF8
Codec ID/Info                            : UTF-8 Plain Text
Duration                                 : 28 min 22 s
Bit rate                                 : 51 b/s
Frame rate                               : 0.194 FPS
Count of elements                        : 331
Stream size                              : 10.8 KiB (0%)
Language                                 : Portuguese (BR)
Default                                  : No
Forced                                   : No

Menu
00:00:00.000                             : en:Scene 1
00:00:12.000                             : en:Scene 2
00:01:17.000                             : en:Scene 3
00:02:34.000                             : en:Scene 4
00:03:57.000                             : en:Scene 5
00:04:47.000                             : en:Scene 6
00:05:50.000                             : en:Scene 7
00:06:42.000                             : en:Scene 8
00:07:19.000                             : en:Scene 9
00:08:28.000                             : en:Scene 10
00:09:00.000                             : en:Scene 11
00:09:33.000                             : en:Scene 12
00:10:23.000                             : en:Scene 13
00:11:20.000                             : en:Scene 14
00:11:52.000                             : en:Scene 15
00:14:04.000                             : en:Scene 16
00:14:46.000                             : en:Scene 17
00:16:27.000                             : en:Scene 18
00:17:05.000                             : en:Scene 19
00:17:47.000                             : en:Scene 20
00:18:20.000                             : en:Scene 21
00:19:02.000                             : en:Scene 22
00:19:22.000                             : en:Scene 23
00:20:10.000                             : en:Scene 24
00:20:45.000                             : en:Scene 25
00:22:10.000                             : en:Scene 26
00:23:18.000                             : en:Scene 27
00:24:04.000                             : en:Scene 28
00:25:01.000                             : en:Scene 29
00:25:53.000                             : en:Scene 30
00:27:52.000                             : en:Scene 31



Download
File Container: MKV
Video/Audio Codec: H264 (HIGH) EAC3
Video Resolution: 1920x960
Please Login to post a comment.
If you don't have any account, please Register.
  • Subscribe my Feeds
  • Facebook
Encoding Queue:  x264  x265

Latest Episodes

Popular Movies and TV Shows

  • The Great North
  • Dune: Part Two
  • Trinket Box
  • Beacon 23
  • The Channel
  • Cold Justice
  • Shogun
  • This Town
  • The Bellboy and the Playgirls
  • Guardians of the Galaxy Vol. 3
  • Dickinson
  • Yannick
  • Parish
  • Saturday Night Live
  • Ninja Kamui
  • Fantastic Four: Rise of the Silver Surfer
  • The Taste of Things
  • Legend of the Lost Locket
  • Fallout
  • Immoral Women
  • Grey's Anatomy
  • S.W.A.T.
  • Willow
  • Scrambled
  • FBI

Recent Comments

  • mentalityx:

    Rad bloke

  • DownloadHostInspector:

    so far these RMTeam uploads always have a working link. DownloadHostInspector approved!

  • DownloadHostInspector:

    ah yes, this upload has a host that works. clicknupload. DownloadHostInspector approved!

  • DownloadHostInspector: Why are all the download hosts trash? none of them let you download it
  • Qua4ratic:

    clicknupload link plz

  • ppoo:

    Please, can you add "Real Time with Bill Maher S22E11" ??

  • theahtisham:

    Kindly upload Ep. 3 and 4 as well.

  • Kudzu: Update on sound issue, File's codec info says stereo but is only a the left channel If I switch i...
  • Admin:

    kang
    Getting error while encoding, sorry

Archives