Sign Up   |   Sign In  
The ChiShoresySistasI Saw the TV GlowThe EgyptianBekasThe Bold and the BeautifulThe Big CigarYoung SheldonNotas sobre un veranoGoodbye Uncle TomThe PrestigeThe BoysWWE NXTWalkerMower MinionsBratsAssimilateEvilBridgertonCriminal MindsIn the Line of FireThe Artifice GirlLamp LifeThe Daily Show

Announcements

03/29

2024

No

Comments

The Baxters 2024 S03E04 The Moment of Truth 1080p AMZN WEB-DL DDP5 1 H 264-NTb
[RR/NF/CU]
Size: 1.3GB mkv H264 (HIGH) / EAC3  HD  1920x960

The Baxters
File Information
[img]http://lookpic.com/cdn/i2/t/0329202405353784-1.jpg[/img]
[img]http://lookpic.com/cdn/i2/t/0329202405353784-2.jpg[/img]
[img]http://lookpic.com/cdn/i2/t/0329202405353784-3.jpg[/img]

General
Unique ID                                : 188398219839559561201994973480171895407 (0x8DBC2D63EA22D95F7D45BFF6BFB87A6F)
Complete name                            : The Baxters 2024 S03E04 The Moment of Truth 1080p AMZN WEB-DL DDP5 1 H 264-NTb.mkv
Format                                   : Matroska
Format version                           : Version 4
File size                                : 1.30 GiB
Duration                                 : 23 min 31 s
Overall bit rate                         : 7 883 kb/s
Frame rate                               : 23.976 FPS
Writing application                      : mkvmerge v81.0 ('Milliontown') 64-bit
Writing library                          : libebml v1.4.4 + libmatroska v1.7.1

Video
ID                                       : 1
Format                                   : AVC
Format/Info                              : Advanced Video Codec
Format profile                           : High@L4
Format settings                          : CABAC / 4 Ref Frames
Format settings, CABAC                   : Yes
Format settings, Reference frames        : 4 frames
Codec ID                                 : V_MPEG4/ISO/AVC
Duration                                 : 23 min 31 s
Bit rate mode                            : Constant
Bit rate                                 : 7 239 kb/s
Nominal bit rate                         : 10 000 kb/s
Width                                    : 1 920 pixels
Height                                   : 960 pixels
Display aspect ratio                     : 2.000
Frame rate mode                          : Constant
Frame rate                               : 23.976 (24000/1001) FPS
Color space                              : YUV
Chroma subsampling                       : 4:2:0
Bit depth                                : 8 bits
Scan type                                : Progressive
Bits/(Pixel*Frame)                       : 0.164
Stream size                              : 1.19 GiB (92%)
Default                                  : Yes
Forced                                   : No
Color range                              : Limited
Color primaries                          : BT.709
Transfer characteristics                 : BT.709
Matrix coefficients                      : BT.709

Audio
ID                                       : 2
Format                                   : E-AC-3
Format/Info                              : Enhanced AC-3
Commercial name                          : Dolby Digital Plus
Codec ID                                 : A_EAC3
Duration                                 : 23 min 31 s
Bit rate mode                            : Constant
Bit rate                                 : 640 kb/s
Channel(s)                               : 6 channels
Channel layout                           : L R C LFE Ls Rs
Sampling rate                            : 48.0 kHz
Frame rate                               : 31.250 FPS (1536 SPF)
Compression mode                         : Lossy
Stream size                              : 108 MiB (8%)
Language                                 : English (US)
Service kind                             : Complete Main
Default                                  : Yes
Forced                                   : No

Text #1
ID                                       : 3
Format                                   : UTF-8
Codec ID                                 : S_TEXT/UTF8
Codec ID/Info                            : UTF-8 Plain Text
Duration                                 : 22 min 36 s
Bit rate                                 : 65 b/s
Frame rate                               : 0.249 FPS
Count of elements                        : 338
Stream size                              : 10.8 KiB (0%)
Language                                 : English (US)
Default                                  : No
Forced                                   : No

Text #2
ID                                       : 4
Format                                   : UTF-8
Codec ID                                 : S_TEXT/UTF8
Codec ID/Info                            : UTF-8 Plain Text
Duration                                 : 22 min 41 s
Bit rate                                 : 69 b/s
Frame rate                               : 0.268 FPS
Count of elements                        : 365
Stream size                              : 11.5 KiB (0%)
Title                                    : SDH
Language                                 : English (US)
Default                                  : No
Forced                                   : No

Text #3
ID                                       : 5
Format                                   : UTF-8
Codec ID                                 : S_TEXT/UTF8
Codec ID/Info                            : UTF-8 Plain Text
Duration                                 : 23 min 15 s
Bit rate                                 : 58 b/s
Frame rate                               : 0.191 FPS
Count of elements                        : 266
Stream size                              : 9.92 KiB (0%)
Language                                 : German (DE)
Default                                  : No
Forced                                   : No

Text #4
ID                                       : 6
Format                                   : UTF-8
Codec ID                                 : S_TEXT/UTF8
Codec ID/Info                            : UTF-8 Plain Text
Duration                                 : 23 min 15 s
Bit rate                                 : 56 b/s
Frame rate                               : 0.191 FPS
Count of elements                        : 267
Stream size                              : 9.69 KiB (0%)
Title                                    : Spanish (Latin America)
Language                                 : Spanish (Latin America)
Default                                  : No
Forced                                   : No

Text #5
ID                                       : 7
Format                                   : UTF-8
Codec ID                                 : S_TEXT/UTF8
Codec ID/Info                            : UTF-8 Plain Text
Duration                                 : 23 min 15 s
Bit rate                                 : 55 b/s
Frame rate                               : 0.191 FPS
Count of elements                        : 267
Stream size                              : 9.46 KiB (0%)
Title                                    : Spanish (Spain)
Language                                 : Spanish (ES)
Default                                  : No
Forced                                   : No

Text #6
ID                                       : 8
Format                                   : UTF-8
Codec ID                                 : S_TEXT/UTF8
Codec ID/Info                            : UTF-8 Plain Text
Duration                                 : 23 min 15 s
Bit rate                                 : 57 b/s
Frame rate                               : 0.191 FPS
Count of elements                        : 267
Stream size                              : 9.71 KiB (0%)
Language                                 : French (FR)
Default                                  : No
Forced                                   : No

Text #7
ID                                       : 9
Format                                   : UTF-8
Codec ID                                 : S_TEXT/UTF8
Codec ID/Info                            : UTF-8 Plain Text
Duration                                 : 23 min 15 s
Bit rate                                 : 140 b/s
Frame rate                               : 0.193 FPS
Count of elements                        : 269
Stream size                              : 23.9 KiB (0%)
Language                                 : Hindi (IN)
Default                                  : No
Forced                                   : No

Text #8
ID                                       : 10
Format                                   : UTF-8
Codec ID                                 : S_TEXT/UTF8
Codec ID/Info                            : UTF-8 Plain Text
Duration                                 : 23 min 15 s
Bit rate                                 : 56 b/s
Frame rate                               : 0.191 FPS
Count of elements                        : 267
Stream size                              : 9.63 KiB (0%)
Language                                 : Italian (IT)
Default                                  : No
Forced                                   : No

Text #9
ID                                       : 11
Format                                   : UTF-8
Codec ID                                 : S_TEXT/UTF8
Codec ID/Info                            : UTF-8 Plain Text
Duration                                 : 23 min 15 s
Bit rate                                 : 50 b/s
Frame rate                               : 0.231 FPS
Count of elements                        : 323
Stream size                              : 8.67 KiB (0%)
Language                                 : Japanese (JP)
Default                                  : No
Forced                                   : No

Text #10
ID                                       : 12
Format                                   : UTF-8
Codec ID                                 : S_TEXT/UTF8
Codec ID/Info                            : UTF-8 Plain Text
Duration                                 : 23 min 15 s
Bit rate                                 : 56 b/s
Frame rate                               : 0.191 FPS
Count of elements                        : 267
Stream size                              : 9.66 KiB (0%)
Language                                 : Portuguese (BR)
Default                                  : No
Forced                                   : No

Menu
00:00:00.000                             : en:Scene 1
00:00:38.000                             : en:Scene 2
00:01:22.000                             : en:Scene 3
00:02:56.000                             : en:Scene 4
00:04:43.000                             : en:Scene 5
00:05:22.000                             : en:Scene 6
00:06:50.000                             : en:Scene 7
00:08:33.000                             : en:Scene 8
00:09:34.000                             : en:Scene 9
00:10:48.000                             : en:Scene 10
00:11:36.000                             : en:Scene 11
00:12:27.000                             : en:Scene 12
00:13:50.000                             : en:Scene 13
00:14:18.000                             : en:Scene 14
00:15:07.000                             : en:Scene 15
00:15:57.000                             : en:Scene 16
00:17:15.000                             : en:Scene 17
00:19:01.000                             : en:Scene 18
00:20:21.000                             : en:Scene 19
00:22:15.000                             : en:Next On
00:22:46.000                             : en:End Credits



Download
File Container: MKV
Video/Audio Codec: H264 (HIGH) EAC3
Video Resolution: 1920x960
Please Login to post a comment.
If you don't have any account, please Register.
  • Subscribe my Feeds
  • Facebook
Encoding Queue:  x264  x265

Latest Episodes

Popular Movies and TV Shows

  • The Chi
  • Shoresy
  • Sistas
  • I Saw the TV Glow
  • The Egyptian
  • Bekas
  • The Bold and the Beautiful
  • The Big Cigar
  • Young Sheldon
  • Notas sobre un verano
  • Goodbye Uncle Tom
  • The Prestige
  • The Boys
  • WWE NXT
  • Walker
  • Mower Minions
  • Brats
  • Assimilate
  • Evil
  • Bridgerton
  • Criminal Minds
  • In the Line of Fire
  • The Artifice Girl
  • Lamp Life
  • The Daily Show

Recent Comments

Archives