Sign Up   |   Sign In  
The Great NorthDune: Part TwoBeacon 23Trinket BoxThe ChannelHazbin HotelShogunThis TownGuardians of the Galaxy Vol. 3The Bellboy and the PlaygirlsResident AlienDangerous MovesParishSaturday Night LiveNinja KamuiFantastic Four: Rise of the Silver SurferThe Taste of ThingsLegend of the Lost LocketFalloutImmoral WomenGrey's AnatomyS.W.A.T.WillowScrambledFBI

Announcements

03/28

2024

1

Comments

Resident Alien S03E07 Here Comes My Baby 720p AMZN WEB-DL DDP5 1 H 264-FLUX
[RR/NF/CU]
Size: 1.2GB mkv H264 (HIGH) / EAC3  HD  1280x720

Resident Alien
File Information
[img]http://lookpic.com/cdn/i2/t/0328202405285017-1.jpg[/img]
[img]http://lookpic.com/cdn/i2/t/0328202405285017-2.jpg[/img]
[img]http://lookpic.com/cdn/i2/t/0328202405285017-3.jpg[/img]

General
Unique ID                                : 63496674488980344396425517546295035360 (0x2FC503C1DABAF77F73B7BA915A4C85E0)
Complete name                            : Resident Alien S03E07 Here Comes My Baby 720p AMZN WEB-DL DDP5 1 H 264-FLUX.mkv
Format                                   : Matroska
Format version                           : Version 4
File size                                : 1.22 GiB
Duration                                 : 45 min 1 s
Overall bit rate                         : 3 887 kb/s
Frame rate                               : 23.976 FPS
Writing application                      : mkvmerge v82.0 ('I'm The President') 64-bit
Writing library                          : libebml v1.4.5 + libmatroska v1.7.1

Video
ID                                       : 1
Format                                   : AVC
Format/Info                              : Advanced Video Codec
Format profile                           : [email protected]
Format settings                          : CABAC / 4 Ref Frames
Format settings, CABAC                   : Yes
Format settings, Reference frames        : 4 frames
Codec ID                                 : V_MPEG4/ISO/AVC
Duration                                 : 45 min 1 s
Bit rate mode                            : Constant
Bit rate                                 : 3 245 kb/s
Nominal bit rate                         : 6 000 kb/s
Width                                    : 1 280 pixels
Height                                   : 720 pixels
Display aspect ratio                     : 16:9
Frame rate mode                          : Constant
Frame rate                               : 23.976 (24000/1001) FPS
Color space                              : YUV
Chroma subsampling                       : 4:2:0
Bit depth                                : 8 bits
Scan type                                : Progressive
Bits/(Pixel*Frame)                       : 0.147
Stream size                              : 1.02 GiB (83%)
Language                                 : English (US)
Default                                  : Yes
Forced                                   : No
Color range                              : Limited
Color primaries                          : BT.709
Transfer characteristics                 : BT.709
Matrix coefficients                      : BT.709

Audio
ID                                       : 2
Format                                   : E-AC-3
Format/Info                              : Enhanced AC-3
Commercial name                          : Dolby Digital Plus
Codec ID                                 : A_EAC3
Duration                                 : 45 min 1 s
Bit rate mode                            : Constant
Bit rate                                 : 640 kb/s
Channel(s)                               : 6 channels
Channel layout                           : L R C LFE Ls Rs
Sampling rate                            : 48.0 kHz
Frame rate                               : 31.250 FPS (1536 SPF)
Compression mode                         : Lossy
Stream size                              : 206 MiB (16%)
Language                                 : English
Service kind                             : Complete Main
Default                                  : Yes
Forced                                   : No

Text #1
ID                                       : 3
Format                                   : UTF-8
Codec ID                                 : S_TEXT/UTF8
Codec ID/Info                            : UTF-8 Plain Text
Duration                                 : 44 min 51 s
Bit rate                                 : 78 b/s
Frame rate                               : 0.344 FPS
Count of elements                        : 925
Stream size                              : 25.8 KiB (0%)
Language                                 : English (US)
Default                                  : No
Forced                                   : No

Text #2
ID                                       : 4
Format                                   : UTF-8
Codec ID                                 : S_TEXT/UTF8
Codec ID/Info                            : UTF-8 Plain Text
Duration                                 : 44 min 57 s
Bit rate                                 : 82 b/s
Frame rate                               : 0.378 FPS
Count of elements                        : 1020
Stream size                              : 27.2 KiB (0%)
Title                                    : SDH
Language                                 : English (US)
Default                                  : No
Forced                                   : No

Menu
00:00:00.000                             : en:Scene 1
00:44:56.000                             : en:End Credits



Download
File Container: MKV
Video/Audio Codec: H264 (HIGH) EAC3
Video Resolution: 1280x720

1 Response to "[RR/NF/CU] Resident Alien S03E07 Here Comes My Baby 720p AMZN WEB-DL DDP5 1 H 264-FLUX (1.2GB)"
03/28/24
08:45:56
ReadyPlayerOne

Thank You

Please Login to post a comment.
If you don't have any account, please Register.
  • Subscribe my Feeds
  • Facebook
Encoding Queue:  x264  x265

Latest Episodes

Popular Movies and TV Shows

  • The Great North
  • Dune: Part Two
  • Beacon 23
  • Trinket Box
  • The Channel
  • Hazbin Hotel
  • Shogun
  • This Town
  • Guardians of the Galaxy Vol. 3
  • The Bellboy and the Playgirls
  • Resident Alien
  • Dangerous Moves
  • Parish
  • Saturday Night Live
  • Ninja Kamui
  • Fantastic Four: Rise of the Silver Surfer
  • The Taste of Things
  • Legend of the Lost Locket
  • Fallout
  • Immoral Women
  • Grey's Anatomy
  • S.W.A.T.
  • Willow
  • Scrambled
  • FBI

Recent Comments

  • mentalityx:

    Rad bloke

  • DownloadHostInspector:

    so far these RMTeam uploads always have a working link. DownloadHostInspector approved!

  • DownloadHostInspector:

    ah yes, this upload has a host that works. clicknupload. DownloadHostInspector approved!

  • DownloadHostInspector: Why are all the download hosts trash? none of them let you download it
  • Qua4ratic:

    clicknupload link plz

  • ppoo:

    Please, can you add "Real Time with Bill Maher S22E11" ??

  • theahtisham:

    Kindly upload Ep. 3 and 4 as well.

  • Kudzu: Update on sound issue, File's codec info says stereo but is only a the left channel If I switch i...
  • Admin:

    kang
    Getting error while encoding, sorry

Archives