Sign Up   |   Sign In  
SistasThe ChosenThe ChiI Saw the TV GlowBratsInside Out 2The Bold and the BeautifulShoresyThe Big CigarNotas sobre un veranoThe EgyptianThe PrestigeWWE NXTThe BoysWalkerMower MinionsAssimilateFentasyEvilBridgertonCriminal MindsIn the Line of FireThe Artifice GirlLamp LifeThe Daily Show

Announcements

03/30

2024

No

Comments

Renegade Nell S01E07 Stop Printing This Muck 720p DSNP WEB-DL DDP5 1 H 264-NTb
[RR/NF/CU]
Size: 1GB mkv H264 (HIGH) / EAC3  HD  1280x720

Renegade Nell
File Information
[img]http://lookpic.com/cdn/i2/t/0330202418201711-1.jpg[/img]
[img]http://lookpic.com/cdn/i2/t/0330202418201711-2.jpg[/img]
[img]http://lookpic.com/cdn/i2/t/0330202418201711-3.jpg[/img]

General
Unique ID                                : 47418618548429464732386261590470087727 (0x23AC7E65A39C3EA09230C58ECB48D42F)
Complete name                            : Renegade Nell S01E07 Stop Printing This Muck 720p DSNP WEB-DL DDP5 1 H 264-NTb.mkv
Format                                   : Matroska
Format version                           : Version 4
File size                                : 1.03 GiB
Duration                                 : 37 min 8 s
Overall bit rate mode                    : Variable
Overall bit rate                         : 3 979 kb/s
Frame rate                               : 23.976 FPS
Writing application                      : mkvmerge v80.0 ('Roundabout') 64-bit
Writing library                          : libebml v1.4.4 + libmatroska v1.7.1

Video
ID                                       : 1
Format                                   : AVC
Format/Info                              : Advanced Video Codec
Format profile                           : [email protected]
Format settings                          : CABAC / 4 Ref Frames
Format settings, CABAC                   : Yes
Format settings, Reference frames        : 4 frames
Codec ID                                 : V_MPEG4/ISO/AVC
Duration                                 : 37 min 8 s
Bit rate mode                            : Variable
Bit rate                                 : 3 206 kb/s
Maximum bit rate                         : 6 375 kb/s
Width                                    : 1 280 pixels
Height                                   : 720 pixels
Display aspect ratio                     : 16:9
Frame rate mode                          : Constant
Frame rate                               : 23.976 (24000/1001) FPS
Color space                              : YUV
Chroma subsampling                       : 4:2:0
Bit depth                                : 8 bits
Scan type                                : Progressive
Bits/(Pixel*Frame)                       : 0.145
Time code of first frame                 : 00:00:00:0000000000
Stream size                              : 852 MiB (81%)
Default                                  : Yes
Forced                                   : No
Color range                              : Limited
Color primaries                          : BT.709
Transfer characteristics                 : BT.709
Matrix coefficients                      : BT.709

Audio
ID                                       : 2
Format                                   : E-AC-3 JOC
Format/Info                              : Enhanced AC-3 with Joint Object Coding
Commercial name                          : Dolby Digital Plus with Dolby Atmos
Codec ID                                 : A_EAC3
Duration                                 : 37 min 8 s
Bit rate mode                            : Constant
Bit rate                                 : 768 kb/s
Channel(s)                               : 6 channels
Channel layout                           : L R C LFE Ls Rs
Sampling rate                            : 48.0 kHz
Frame rate                               : 31.250 FPS (1536 SPF)
Compression mode                         : Lossy
Stream size                              : 204 MiB (19%)
Language                                 : English
Service kind                             : Complete Main
Default                                  : Yes
Forced                                   : No
Complexity index                         : 16
Number of dynamic objects                : 15
Bed channel count                        : 1 channel
Bed channel configuration                : LFE

Text #1
ID                                       : 3
Format                                   : UTF-8
Codec ID                                 : S_TEXT/UTF8
Codec ID/Info                            : UTF-8 Plain Text
Duration                                 : 35 min 27 s
Bit rate                                 : 68 b/s
Frame rate                               : 0.247 FPS
Count of elements                        : 525
Stream size                              : 17.8 KiB (0%)
Language                                 : English (GB)
Default                                  : No
Forced                                   : No

Text #2
ID                                       : 4
Format                                   : UTF-8
Codec ID                                 : S_TEXT/UTF8
Codec ID/Info                            : UTF-8 Plain Text
Duration                                 : 35 min 52 s
Bit rate                                 : 81 b/s
Frame rate                               : 0.293 FPS
Count of elements                        : 630
Stream size                              : 21.3 KiB (0%)
Title                                    : SDH
Language                                 : English (GB)
Default                                  : No
Forced                                   : No

Text #3
ID                                       : 5
Format                                   : UTF-8
Codec ID                                 : S_TEXT/UTF8
Codec ID/Info                            : UTF-8 Plain Text
Duration                                 : 35 min 29 s
Bit rate                                 : 65 b/s
Frame rate                               : 0.235 FPS
Count of elements                        : 501
Stream size                              : 16.9 KiB (0%)
Language                                 : Czech
Default                                  : No
Forced                                   : No

Text #4
ID                                       : 6
Format                                   : UTF-8
Codec ID                                 : S_TEXT/UTF8
Codec ID/Info                            : UTF-8 Plain Text
Duration                                 : 36 min 59 s
Bit rate                                 : 61 b/s
Frame rate                               : 0.225 FPS
Count of elements                        : 500
Stream size                              : 16.7 KiB (0%)
Language                                 : Danish
Default                                  : No
Forced                                   : No

Text #5
ID                                       : 7
Format                                   : UTF-8
Codec ID                                 : S_TEXT/UTF8
Codec ID/Info                            : UTF-8 Plain Text
Duration                                 : 37 min 0 s
Bit rate                                 : 64 b/s
Frame rate                               : 0.225 FPS
Count of elements                        : 500
Stream size                              : 17.6 KiB (0%)
Language                                 : German
Default                                  : No
Forced                                   : No

Text #6
ID                                       : 8
Format                                   : UTF-8
Codec ID                                 : S_TEXT/UTF8
Codec ID/Info                            : UTF-8 Plain Text
Duration                                 : 36 min 59 s
Bit rate                                 : 111 b/s
Frame rate                               : 0.225 FPS
Count of elements                        : 500
Stream size                              : 30.1 KiB (0%)
Language                                 : Greek
Default                                  : No
Forced                                   : No

Text #7
ID                                       : 9
Format                                   : UTF-8
Codec ID                                 : S_TEXT/UTF8
Codec ID/Info                            : UTF-8 Plain Text
Duration                                 : 37 min 6 s
Bit rate                                 : 64 b/s
Frame rate                               : 0.226 FPS
Count of elements                        : 503
Stream size                              : 17.4 KiB (0%)
Title                                    : Spanish (Latin America)
Language                                 : Spanish (Latin America)
Default                                  : No
Forced                                   : No

Text #8
ID                                       : 10
Format                                   : UTF-8
Codec ID                                 : S_TEXT/UTF8
Codec ID/Info                            : UTF-8 Plain Text
Duration                                 : 36 min 59 s
Bit rate                                 : 62 b/s
Frame rate                               : 0.226 FPS
Count of elements                        : 501
Stream size                              : 16.9 KiB (0%)
Title                                    : Spanish (Spain)
Language                                 : Spanish (ES)
Default                                  : No
Forced                                   : No

Text #9
ID                                       : 11
Format                                   : UTF-8
Codec ID                                 : S_TEXT/UTF8
Codec ID/Info                            : UTF-8 Plain Text
Duration                                 : 37 min 6 s
Bit rate                                 : 62 b/s
Frame rate                               : 0.225 FPS
Count of elements                        : 501
Stream size                              : 17.1 KiB (0%)
Language                                 : Finnish
Default                                  : No
Forced                                   : No

Text #10
ID                                       : 12
Format                                   : UTF-8
Codec ID                                 : S_TEXT/UTF8
Codec ID/Info                            : UTF-8 Plain Text
Duration                                 : 37 min 6 s
Bit rate                                 : 65 b/s
Frame rate                               : 0.225 FPS
Count of elements                        : 500
Stream size                              : 17.9 KiB (0%)
Language                                 : French (FR)
Default                                  : No
Forced                                   : No

Text #11
ID                                       : 13
Format                                   : UTF-8
Codec ID                                 : S_TEXT/UTF8
Codec ID/Info                            : UTF-8 Plain Text
Duration                                 : 37 min 0 s
Bit rate                                 : 63 b/s
Frame rate                               : 0.226 FPS
Count of elements                        : 501
Stream size                              : 17.2 KiB (0%)
Language                                 : Hungarian
Default                                  : No
Forced                                   : No

Text #12
ID                                       : 14
Format                                   : UTF-8
Codec ID                                 : S_TEXT/UTF8
Codec ID/Info                            : UTF-8 Plain Text
Duration                                 : 37 min 6 s
Bit rate                                 : 62 b/s
Frame rate                               : 0.224 FPS
Count of elements                        : 499
Stream size                              : 17.0 KiB (0%)
Language                                 : Italian
Default                                  : No
Forced                                   : No

Text #13
ID                                       : 15
Format                                   : UTF-8
Codec ID                                 : S_TEXT/UTF8
Codec ID/Info                            : UTF-8 Plain Text
Duration                                 : 37 min 2 s
Bit rate                                 : 57 b/s
Frame rate                               : 0.242 FPS
Count of elements                        : 537
Stream size                              : 15.6 KiB (0%)
Language                                 : Japanese
Default                                  : No
Forced                                   : No

Text #14
ID                                       : 16
Format                                   : UTF-8
Codec ID                                 : S_TEXT/UTF8
Codec ID/Info                            : UTF-8 Plain Text
Duration                                 : 36 min 59 s
Bit rate                                 : 74 b/s
Frame rate                               : 0.233 FPS
Count of elements                        : 516
Stream size                              : 20.1 KiB (0%)
Language                                 : Korean
Default                                  : No
Forced                                   : No

Text #15
ID                                       : 17
Format                                   : UTF-8
Codec ID                                 : S_TEXT/UTF8
Codec ID/Info                            : UTF-8 Plain Text
Duration                                 : 36 min 59 s
Bit rate                                 : 62 b/s
Frame rate                               : 0.226 FPS
Count of elements                        : 501
Stream size                              : 16.9 KiB (0%)
Language                                 : Dutch
Default                                  : No
Forced                                   : No

Text #16
ID                                       : 18
Format                                   : UTF-8
Codec ID                                 : S_TEXT/UTF8
Codec ID/Info                            : UTF-8 Plain Text
Duration                                 : 37 min 6 s
Bit rate                                 : 61 b/s
Frame rate                               : 0.225 FPS
Count of elements                        : 500
Stream size                              : 16.7 KiB (0%)
Language                                 : Norwegian
Default                                  : No
Forced                                   : No

Text #17
ID                                       : 19
Format                                   : UTF-8
Codec ID                                 : S_TEXT/UTF8
Codec ID/Info                            : UTF-8 Plain Text
Duration                                 : 37 min 6 s
Bit rate                                 : 56 b/s
Frame rate                               : 0.225 FPS
Count of elements                        : 501
Stream size                              : 15.4 KiB (0%)
Language                                 : Polish
Default                                  : No
Forced                                   : No

Text #18
ID                                       : 20
Format                                   : UTF-8
Codec ID                                 : S_TEXT/UTF8
Codec ID/Info                            : UTF-8 Plain Text
Duration                                 : 36 min 59 s
Bit rate                                 : 62 b/s
Frame rate                               : 0.225 FPS
Count of elements                        : 500
Stream size                              : 16.9 KiB (0%)
Title                                    : Portuguese (Brazil)
Language                                 : Portuguese (BR)
Default                                  : No
Forced                                   : No

Text #19
ID                                       : 21
Format                                   : UTF-8
Codec ID                                 : S_TEXT/UTF8
Codec ID/Info                            : UTF-8 Plain Text
Duration                                 : 36 min 59 s
Bit rate                                 : 62 b/s
Frame rate                               : 0.225 FPS
Count of elements                        : 500
Stream size                              : 16.9 KiB (0%)
Title                                    : Portuguese (Portugal)
Language                                 : Portuguese (PT)
Default                                  : No
Forced                                   : No

Text #20
ID                                       : 22
Format                                   : UTF-8
Codec ID                                 : S_TEXT/UTF8
Codec ID/Info                            : UTF-8 Plain Text
Duration                                 : 37 min 2 s
Bit rate                                 : 63 b/s
Frame rate                               : 0.225 FPS
Count of elements                        : 500
Stream size                              : 17.1 KiB (0%)
Language                                 : Romanian
Default                                  : No
Forced                                   : No

Text #21
ID                                       : 23
Format                                   : UTF-8
Codec ID                                 : S_TEXT/UTF8
Codec ID/Info                            : UTF-8 Plain Text
Duration                                 : 37 min 2 s
Bit rate                                 : 63 b/s
Frame rate                               : 0.225 FPS
Count of elements                        : 501
Stream size                              : 17.2 KiB (0%)
Language                                 : Slovak
Default                                  : No
Forced                                   : No

Text #22
ID                                       : 24
Format                                   : UTF-8
Codec ID                                 : S_TEXT/UTF8
Codec ID/Info                            : UTF-8 Plain Text
Duration                                 : 36 min 59 s
Bit rate                                 : 61 b/s
Frame rate                               : 0.225 FPS
Count of elements                        : 500
Stream size                              : 16.6 KiB (0%)
Language                                 : Swedish
Default                                  : No
Forced                                   : No

Text #23
ID                                       : 25
Format                                   : UTF-8
Codec ID                                 : S_TEXT/UTF8
Codec ID/Info                            : UTF-8 Plain Text
Duration                                 : 36 min 59 s
Bit rate                                 : 64 b/s
Frame rate                               : 0.225 FPS
Count of elements                        : 500
Stream size                              : 17.5 KiB (0%)
Language                                 : Turkish
Default                                  : No
Forced                                   : No

Text #24
ID                                       : 26
Format                                   : UTF-8
Codec ID                                 : S_TEXT/UTF8
Codec ID/Info                            : UTF-8 Plain Text
Duration                                 : 37 min 3 s
Bit rate                                 : 57 b/s
Frame rate                               : 0.230 FPS
Count of elements                        : 512
Stream size                              : 15.6 KiB (0%)
Language                                 : Chinese (Traditional)
Default                                  : No
Forced                                   : No



Download
File Container: MKV
Video/Audio Codec: H264 (HIGH) EAC3
Video Resolution: 1280x720
Please Login to post a comment.
If you don't have any account, please Register.
  • Subscribe my Feeds
  • Facebook
Encoding Queue:  x264  x265

Latest Episodes

Popular Movies and TV Shows

  • Sistas
  • The Chosen
  • The Chi
  • I Saw the TV Glow
  • Brats
  • Inside Out 2
  • The Bold and the Beautiful
  • Shoresy
  • The Big Cigar
  • Notas sobre un verano
  • The Egyptian
  • The Prestige
  • WWE NXT
  • The Boys
  • Walker
  • Mower Minions
  • Assimilate
  • Fentasy
  • Evil
  • Bridgerton
  • Criminal Minds
  • In the Line of Fire
  • The Artifice Girl
  • Lamp Life
  • The Daily Show

Recent Comments

Archives