Sign Up   |   Sign In  
Dune: Part TwoThe Great NorthSullivan's CrossingGrimsburgTo Die ForIsland of Lemurs: MadagascarGuardians of the Galaxy Vol. 3Beacon 23The ChannelTrinket BoxHazbin HotelCold JusticeShogunParishSaturday Night LiveThe Taste of ThingsLegend of the Lost LocketFantastic Four: Rise of the Silver SurferFalloutGrey's AnatomyImmoral WomenS.W.A.T.WillowScrambledFBI

Announcements

03/31

2024

1

Comments

Halt and Catch Fire S03E01 1080p AMZN WEB-DL DDP 5 1 H 264-NTb
[RR/NF]
Size: 3.9GB mkv H264 (HIGH) / EAC3  HD  1920x1080

Halt and Catch Fire
File Information
[img]http://lookpic.com/cdn/i2/t/0331202409284934-1.jpg[/img]
[img]http://lookpic.com/cdn/i2/t/0331202409284934-2.jpg[/img]
[img]http://lookpic.com/cdn/i2/t/0331202409284934-3.jpg[/img]

General
Unique ID                                : 254592425016392100716690368395428878350 (0xBF88B7ADC603FC188AD6B0BA47E1D80E)
Complete name                            : Halt and Catch Fire S03E01 1080p AMZN WEB-DL DDP 5 1 H 264-NTb.mkv
Format                                   : Matroska
Format version                           : Version 4
File size                                : 3.94 GiB
Duration                                 : 43 min 54 s
Overall bit rate mode                    : Variable
Overall bit rate                         : 12.8 Mb/s
Frame rate                               : 23.976 FPS
Encoded date                             : 2017-08-13 21:08:42 UTC
Writing application                      : mkvmerge v14.0.0 ('Flow') 64bit
Writing library                          : libebml v1.3.4 + libmatroska v1.4.5

Video
ID                                       : 1
Format                                   : AVC
Format/Info                              : Advanced Video Codec
Format profile                           : High@L4
Format settings                          : CABAC / 4 Ref Frames
Format settings, CABAC                   : Yes
Format settings, Reference frames        : 4 frames
Codec ID                                 : V_MPEG4/ISO/AVC
Duration                                 : 43 min 54 s
Bit rate mode                            : Variable
Bit rate                                 : 12.2 Mb/s
Maximum bit rate                         : 15.0 Mb/s
Width                                    : 1 920 pixels
Height                                   : 1 080 pixels
Display aspect ratio                     : 16:9
Frame rate mode                          : Constant
Frame rate                               : 23.976 (24000/1001) FPS
Color space                              : YUV
Chroma subsampling                       : 4:2:0
Bit depth                                : 8 bits
Scan type                                : Progressive
Bits/(Pixel*Frame)                       : 0.245
Stream size                              : 3.74 GiB (95%)
Default                                  : Yes
Forced                                   : No
Color range                              : Limited
Color primaries                          : BT.709
Transfer characteristics                 : BT.709
Matrix coefficients                      : BT.709

Audio
ID                                       : 2
Format                                   : E-AC-3
Format/Info                              : Enhanced AC-3
Commercial name                          : Dolby Digital Plus
Codec ID                                 : A_EAC3
Duration                                 : 43 min 54 s
Bit rate mode                            : Constant
Bit rate                                 : 640 kb/s
Channel(s)                               : 6 channels
Channel layout                           : L R C LFE Ls Rs
Sampling rate                            : 48.0 kHz
Frame rate                               : 31.250 FPS (1536 SPF)
Compression mode                         : Lossy
Stream size                              : 201 MiB (5%)
Language                                 : English
Service kind                             : Complete Main
Default                                  : Yes
Forced                                   : No

Text
ID                                       : 3
Format                                   : UTF-8
Codec ID                                 : S_TEXT/UTF8
Codec ID/Info                            : UTF-8 Plain Text
Duration                                 : 43 min 23 s
Bit rate                                 : 81 b/s
Frame rate                               : 0.318 FPS
Count of elements                        : 829
Stream size                              : 25.9 KiB (0%)
Language                                 : English
Default                                  : No
Forced                                   : No



Download
File Container: MKV
Video/Audio Codec: H264 (HIGH) EAC3
Video Resolution: 1920x1080

1 Response to "[RR/NF] Halt and Catch Fire S03E01 1080p AMZN WEB-DL DDP 5 1 H 264-NTb (3.9GB)"
03/31/24
11:00:52
ReadyPlayerOne

Thank you!

Please Login to post a comment.
If you don't have any account, please Register.
  • Subscribe my Feeds
  • Facebook
Encoding Queue:  x264  x265

Latest Episodes

Popular Movies and TV Shows

  • Dune: Part Two
  • The Great North
  • Sullivan's Crossing
  • Grimsburg
  • To Die For
  • Island of Lemurs: Madagascar
  • Guardians of the Galaxy Vol. 3
  • Beacon 23
  • The Channel
  • Trinket Box
  • Hazbin Hotel
  • Cold Justice
  • Shogun
  • Parish
  • Saturday Night Live
  • The Taste of Things
  • Legend of the Lost Locket
  • Fantastic Four: Rise of the Silver Surfer
  • Fallout
  • Grey's Anatomy
  • Immoral Women
  • S.W.A.T.
  • Willow
  • Scrambled
  • FBI

Recent Comments

  • mentalityx:

    Rad bloke

  • DownloadHostInspector:

    so far these RMTeam uploads always have a working link. DownloadHostInspector approved!

  • DownloadHostInspector:

    ah yes, this upload has a host that works. clicknupload. DownloadHostInspector approved!

  • DownloadHostInspector: Why are all the download hosts trash? none of them let you download it
  • Qua4ratic:

    clicknupload link plz

  • ppoo:

    Please, can you add "Real Time with Bill Maher S22E11" ??

  • theahtisham:

    Kindly upload Ep. 3 and 4 as well.

  • Kudzu: Update on sound issue, File's codec info says stereo but is only a the left channel If I switch i...
  • Admin:

    kang
    Getting error while encoding, sorry

Archives