Sign Up   |   Sign In  
The ChiSistasShoresyI Saw the TV GlowBratsThe EgyptianThe Bold and the BeautifulThe Big CigarYoung SheldonThe PrestigeNotas sobre un veranoGoodbye Uncle TomThe BoysWWE NXTWalkerMower MinionsAssimilateFentasyEvilBridgertonCriminal MindsIn the Line of FireThe Artifice GirlLamp LifeThe Daily Show

Announcements

03/31

2024

No

Comments

Halt and Catch Fire S02E03 1080p AMZN WEB-DL DDP 5 1 H 264-NTb
[RR/NF]
Size: 3.8GB mkv H264 (HIGH) / EAC3  HD  1920x1080

Halt and Catch Fire
File Information
[img]http://lookpic.com/cdn/i2/t/0331202408504621-1.jpg[/img]
[img]http://lookpic.com/cdn/i2/t/0331202408504621-2.jpg[/img]
[img]http://lookpic.com/cdn/i2/t/0331202408504621-3.jpg[/img]

General
Unique ID                                : 236139607107507857120823052884945765646 (0xB1A6D5838AB3A30CA5911588460D850E)
Complete name                            : Halt and Catch Fire S02E03 1080p AMZN WEB-DL DDP 5 1 H 264-NTb.mkv
Format                                   : Matroska
Format version                           : Version 4
File size                                : 3.80 GiB
Duration                                 : 43 min 0 s
Overall bit rate mode                    : Variable
Overall bit rate                         : 12.7 Mb/s
Frame rate                               : 23.976 FPS
Encoded date                             : 2016-08-16 01:21:49 UTC
Writing application                      : mkvmerge v9.3.1 ('Mask Machine') 64bit
Writing library                          : libebml v1.3.4 + libmatroska v1.4.5

Video
ID                                       : 1
Format                                   : AVC
Format/Info                              : Advanced Video Codec
Format profile                           : High@L4
Format settings                          : CABAC / 4 Ref Frames
Format settings, CABAC                   : Yes
Format settings, Reference frames        : 4 frames
Codec ID                                 : V_MPEG4/ISO/AVC
Duration                                 : 43 min 0 s
Bit rate mode                            : Variable
Bit rate                                 : 11.8 Mb/s
Maximum bit rate                         : 15.0 Mb/s
Width                                    : 1 920 pixels
Height                                   : 1 080 pixels
Display aspect ratio                     : 16:9
Active Format Description                : Full frame 16:9 image
Frame rate mode                          : Constant
Frame rate                               : 23.976 (24000/1001) FPS
Color space                              : YUV
Chroma subsampling                       : 4:2:0
Bit depth                                : 8 bits
Scan type                                : Progressive
Bits/(Pixel*Frame)                       : 0.237
Stream size                              : 3.53 GiB (93%)
Writing library                          : x264 core 148 r2623 d5b2374
 Encoding settings                        : cabac=1 / ref=4 / deblock=1:-1:-1 / analyse=0x3:0x133 / me=umh / subme=9 / psy=1 / psy_rd=1.00:0.15 / mixed_ref=1 / me_range=24 / chroma_me=1 / trellis=2 / 8x8dct=1 / cqm=0 / deadz / fast pskip=1 / chroma_qp_offset=-3 / threads=34 / lookahead_threads=5 / sliced_threads=0 / nr=150 / decimate=1 / interlaced=0 / bluray_compat=0 / c / bframes=8 / b_pyramid=2 / b_adapt=2 / b_bias=0 / direct=3 / weightb=1 / open_gop=0 / weightp=2 / keyint=120 / keyint_min=61 / scenecut=0 / intra_refresh=0 / rc_lookahead=120 / rc=crf / mbtree=1 / crf=18.0 / qcomp=0.60 / qpmin=0 / qpmax=69 / qpstep=4 / vbv_maxrate=15000 / vbv_bufsize=31250 / crf_max=0.0 / nal_hrd=vbr / filler=0 / ip_ratio=1.40 / aq=3:1.00
Default                                  : Yes
Forced                                   : No
Color range                              : Limited
Color primaries                          : BT.709
Transfer characteristics                 : BT.709
Matrix coefficients                      : BT.709

Audio
ID                                       : 2
Format                                   : E-AC-3
Format/Info                              : Enhanced AC-3
Commercial name                          : Dolby Digital Plus
Codec ID                                 : A_EAC3
Duration                                 : 43 min 0 s
Bit rate mode                            : Constant
Bit rate                                 : 640 kb/s
Channel(s)                               : 6 channels
Channel layout                           : L R C LFE Ls Rs
Sampling rate                            : 48.0 kHz
Frame rate                               : 31.250 FPS (1536 SPF)
Compression mode                         : Lossy
Stream size                              : 197 MiB (5%)
Language                                 : English
Service kind                             : Complete Main
Default                                  : Yes
Forced                                   : No

Text
ID                                       : 3
Format                                   : UTF-8
Codec ID                                 : S_TEXT/UTF8
Codec ID/Info                            : UTF-8 Plain Text
Language                                 : English
Default                                  : No
Forced                                   : No



Download
File Container: MKV
Video/Audio Codec: H264 (HIGH) EAC3
Video Resolution: 1920x1080
Please Login to post a comment.
If you don't have any account, please Register.
  • Subscribe my Feeds
  • Facebook
Encoding Queue:  x264  x265

Latest Episodes

Popular Movies and TV Shows

  • The Chi
  • Sistas
  • Shoresy
  • I Saw the TV Glow
  • Brats
  • The Egyptian
  • The Bold and the Beautiful
  • The Big Cigar
  • Young Sheldon
  • The Prestige
  • Notas sobre un verano
  • Goodbye Uncle Tom
  • The Boys
  • WWE NXT
  • Walker
  • Mower Minions
  • Assimilate
  • Fentasy
  • Evil
  • Bridgerton
  • Criminal Minds
  • In the Line of Fire
  • The Artifice Girl
  • Lamp Life
  • The Daily Show

Recent Comments

Archives