Sign Up   |   Sign In  
Beacon 23S.W.A.T.George to the RescueAnnihilationGhostbusters: Frozen EmpireRebel Moon - Part Two: The ScargiverSun, Sand & RomanceBlueySummer VillaThe HostThe Spiderwick ChroniclesWWE Smackdown!AbigailFalloutYoung SheldonA Dangerous AffairReal Time with Bill MaherLate Night with the DevilBeyond ParadiseSugarStar Trek: DiscoveryOnce Upon a Time in AmericaWhite BirdRed RoverA Gentleman in Moscow

Announcements

04/03

2024

No

Comments

FBI Most Wanted S02E02 Execute 1080p AMZN WEB-DL DDP5 1 H 264-NTb
[RR/NF]
Size: 2.7GB mkv H264 (HIGH) / EAC3  HD  1920x1080

FBI: Most Wanted
File Information
[img]http://lookpic.com/cdn/i2/t/0403202404142118-1.jpg[/img]
[img]http://lookpic.com/cdn/i2/t/0403202404142118-2.jpg[/img]
[img]http://lookpic.com/cdn/i2/t/0403202404142118-3.jpg[/img]

General
Unique ID                                : 34236536297801282057620882816532301334 (0x19C1B7903F8D3B1671E1159539114616)
Complete name                            : FBI Most Wanted S02E02 Execute 1080p AMZN WEB-DL DDP5 1 H 264-NTb.mkv
Format                                   : Matroska
Format version                           : Version 4
File size                                : 2.73 GiB
Duration                                 : 40 min 25 s
Overall bit rate                         : 9 681 kb/s
Frame rate                               : 24.000 FPS
Writing application                      : mkvmerge v45.0.0 ('Heaven in Pennies') 64-bit
Writing library                          : libebml v1.3.10 + libmatroska v1.5.2

Video
ID                                       : 1
Format                                   : AVC
Format/Info                              : Advanced Video Codec
Format profile                           : High@L4
Format settings                          : CABAC / 4 Ref Frames
Format settings, CABAC                   : Yes
Format settings, Reference frames        : 4 frames
Codec ID                                 : V_MPEG4/ISO/AVC
Duration                                 : 40 min 25 s
Bit rate mode                            : Constant
Bit rate                                 : 9 039 kb/s
Nominal bit rate                         : 10 000 kb/s
Width                                    : 1 920 pixels
Height                                   : 1 080 pixels
Display aspect ratio                     : 16:9
Frame rate mode                          : Constant
Frame rate                               : 24.000 FPS
Color space                              : YUV
Chroma subsampling                       : 4:2:0
Bit depth                                : 8 bits
Scan type                                : Progressive
Bits/(Pixel*Frame)                       : 0.182
Stream size                              : 2.55 GiB (93%)
Default                                  : Yes
Forced                                   : No
Color range                              : Limited
Color primaries                          : BT.709
Transfer characteristics                 : BT.709
Matrix coefficients                      : BT.709

Audio
ID                                       : 2
Format                                   : E-AC-3
Format/Info                              : Enhanced AC-3
Commercial name                          : Dolby Digital Plus
Codec ID                                 : A_EAC3
Duration                                 : 40 min 25 s
Bit rate mode                            : Constant
Bit rate                                 : 640 kb/s
Channel(s)                               : 6 channels
Channel layout                           : L R C LFE Ls Rs
Sampling rate                            : 48.0 kHz
Frame rate                               : 31.250 FPS (1536 SPF)
Compression mode                         : Lossy
Stream size                              : 185 MiB (7%)
Language                                 : English
Service kind                             : Complete Main
Default                                  : Yes
Forced                                   : No

Text
ID                                       : 3
Format                                   : UTF-8
Codec ID                                 : S_TEXT/UTF8
Codec ID/Info                            : UTF-8 Plain Text
Duration                                 : 40 min 12 s
Bit rate                                 : 103 b/s
Frame rate                               : 0.368 FPS
Count of elements                        : 887
Stream size                              : 30.5 KiB (0%)
Title                                    : SDH
Language                                 : English
Default                                  : No
Forced                                   : No



Download
File Container: MKV
Video/Audio Codec: H264 (HIGH) EAC3
Video Resolution: 1920x1080
Please Login to post a comment.
If you don't have any account, please Register.
  • Subscribe my Feeds
  • Facebook
Encoding Queue:  x264  x265

Latest Episodes

Popular Movies and TV Shows

  • Beacon 23
  • S.W.A.T.
  • George to the Rescue
  • Annihilation
  • Ghostbusters: Frozen Empire
  • Rebel Moon - Part Two: The Scargiver
  • Sun, Sand & Romance
  • Bluey
  • Summer Villa
  • The Host
  • The Spiderwick Chronicles
  • WWE Smackdown!
  • Abigail
  • Fallout
  • Young Sheldon
  • A Dangerous Affair
  • Real Time with Bill Maher
  • Late Night with the Devil
  • Beyond Paradise
  • Sugar
  • Star Trek: Discovery
  • Once Upon a Time in America
  • White Bird
  • Red Rover
  • A Gentleman in Moscow

Recent Comments

  • kellym2: I appreciate all the hard work the team does BUT there is no point in my paying for a Premium subscr...
  • Cinque_Persson: Why not skip the old news and hearsay and be constructive: what's the best alternatives for Win, Mac...
  • fallensammer:

    the file on click upload is 119mg onnly and is corrupted

  • ronkanon:

    Could you please provide a ClicknUpload link?

  • ronkanon:

    Could you please provide a ClicknUpload link?

  • waanaabe: Could you Kindly Upload the SOUTH PARK seasons to CU as well? Would be really appreciated
  • gusmac67:

    Clickupload link is corrupt. File bad at 38 min

  • timt:

    Narrated Movie!

  • Richardexamp: I recently stumbled upon https://asiancasinos.org/ and I obligated to symbolize, it has with dispatc...
  • 23d1:

    ClicknUpload link is missing

  • yopo:

    NitroFlare's link is missing !!!

  • yopo:

    NitroFlare's link is missing !!!

  • yopo:

    NitroFlare's link is missing !!!
    Clicknupload's link is missing !!!

  • yopo:

    NitroFlare's link is missing !!!

  • dragonnightfire: I have tried contacting Rapid Rar to find out what is going on with the server maintainance. I am no...
  • dragonnightfire:

    RR links dead on 5 eps

  • Draveren: hi. can we solve this "server under maintenance" stuff, already? if back in the day i'd ke...
  • Majnon: The links are dead. Please re-upload
  • timt:

    Anyone have the movie "Shoot" (1976) to post?

  • Nightshade: Hey, it appears at least the RMTeam separate episodes and ION's packs for the first two seasons of t...

Archives