Sign Up   |   Sign In  
SistasThe ChosenThe ChiI Saw the TV GlowBratsInside Out 2The Bold and the BeautifulShoresyThe Big CigarNotas sobre un veranoThe EgyptianThe PrestigeWWE NXTThe BoysWalkerMower MinionsAssimilateFentasyEvilBridgertonCriminal MindsIn the Line of FireThe Artifice GirlLamp LifeThe Daily Show

Announcements

03/30

2024

1

Comments

Condor S02E01 1080p STAN WEB-DL AAC5 1 H 264-NTb
[RR/NF/CU]
Size: 1.3GB mkv H264 (HIGH) / AAC (LC)  HD  1920x1080

Condor
File Information
[img]http://lookpic.com/cdn/i2/t/0330202421500033-1.jpg[/img]
[img]http://lookpic.com/cdn/i2/t/0330202421500033-2.jpg[/img]
[img]http://lookpic.com/cdn/i2/t/0330202421500033-3.jpg[/img]

General
Unique ID                                : 51241461399903244260772498585205327874 (0x268CBF19FF1449E09A4032FCC1B7C802)
Complete name                            : Condor S02E01 1080p STAN WEB-DL AAC5 1 H 264-NTb.mkv
Format                                   : Matroska
Format version                           : Version 4
File size                                : 1.26 GiB
Duration                                 : 52 min 19 s
Overall bit rate                         : 3 454 kb/s
Frame rate                               : 23.976 FPS
Writing application                      : mkvmerge v45.0.0 ('Heaven in Pennies') 64-bit
Writing library                          : libebml v1.3.10 + libmatroska v1.5.2

Video
ID                                       : 1
Format                                   : AVC
Format/Info                              : Advanced Video Codec
Format profile                           : High@L4
Format settings                          : CABAC / 4 Ref Frames
Format settings, CABAC                   : Yes
Format settings, Reference frames        : 4 frames
Codec ID                                 : V_MPEG4/ISO/AVC
Duration                                 : 52 min 19 s
Bit rate                                 : 3 000 kb/s
Width                                    : 1 920 pixels
Height                                   : 1 080 pixels
Display aspect ratio                     : 16:9
Frame rate mode                          : Constant
Frame rate                               : 23.976 (24000/1001) FPS
Color space                              : YUV
Chroma subsampling                       : 4:2:0
Bit depth                                : 8 bits
Scan type                                : Progressive
Bits/(Pixel*Frame)                       : 0.060
Stream size                              : 1.10 GiB (87%)
Default                                  : Yes
Forced                                   : No
Color range                              : Limited
Color primaries                          : BT.709
Transfer characteristics                 : BT.709
Matrix coefficients                      : BT.709

Audio
ID                                       : 2
Format                                   : AAC LC
Format/Info                              : Advanced Audio Codec Low Complexity
Codec ID                                 : A_AAC-2
Duration                                 : 52 min 19 s
Bit rate                                 : 445 kb/s
Channel(s)                               : 6 channels
Channel layout                           : C L R Ls Rs LFE
Sampling rate                            : 48.0 kHz
Frame rate                               : 46.875 FPS (1024 SPF)
Compression mode                         : Lossy
Stream size                              : 167 MiB (13%)
Language                                 : English
Default                                  : Yes
Forced                                   : No

Text
ID                                       : 3
Format                                   : UTF-8
Codec ID                                 : S_TEXT/UTF8
Codec ID/Info                            : UTF-8 Plain Text
Duration                                 : 52 min 10 s
Bit rate                                 : 58 b/s
Frame rate                               : 0.256 FPS
Count of elements                        : 802
Stream size                              : 22.4 KiB (0%)
Title                                    : SDH
Language                                 : English
Default                                  : No
Forced                                   : No

Menu
00:00:01.000                             : en:Recap start
00:02:46.000                             : en:Recap end
00:04:54.000                             : en:Intro start
00:05:28.000                             : en:Intro end
00:50:19.000                             : en:Credits



Download
File Container: MKV
Video/Audio Codec: H264 (HIGH) AAC (LC)
Video Resolution: 1920x1080

1 Response to "[RR/NF/CU] Condor S02E01 1080p STAN WEB-DL AAC5 1 H 264-NTb (1.3GB)"
03/30/24
23:26:28
ReadyPlayerOne

Thank You

Please Login to post a comment.
If you don't have any account, please Register.
  • Subscribe my Feeds
  • Facebook
Encoding Queue:  x264  x265

Latest Episodes

Popular Movies and TV Shows

  • Sistas
  • The Chosen
  • The Chi
  • I Saw the TV Glow
  • Brats
  • Inside Out 2
  • The Bold and the Beautiful
  • Shoresy
  • The Big Cigar
  • Notas sobre un verano
  • The Egyptian
  • The Prestige
  • WWE NXT
  • The Boys
  • Walker
  • Mower Minions
  • Assimilate
  • Fentasy
  • Evil
  • Bridgerton
  • Criminal Minds
  • In the Line of Fire
  • The Artifice Girl
  • Lamp Life
  • The Daily Show

Recent Comments

Archives