Sign Up   |   Sign In  
The Great NorthDune: Part TwoSullivan's CrossingGrimsburgIsland of Lemurs: MadagascarTo Die ForBeacon 23Guardians of the Galaxy Vol. 3The ChannelTrinket BoxHazbin HotelBravo, tata!ShogunParishSaturday Night LiveThe Taste of ThingsLegend of the Lost LocketFantastic Four: Rise of the Silver SurferFalloutGrey's AnatomyImmoral WomenS.W.A.T.WillowScrambledFBI

Announcements

03/28

2024

No

Comments

Bosch Legacy S02E01 The Lady Vanishes 720p AMZN WEB-DL DDP5 1 H 264-FLUX
[RR/NF/CU]
Size: 1.3GB mkv H264 (HIGH) / EAC3  HD  1280x720

Bosch: Legacy
File Information
[img]http://lookpic.com/cdn/i2/t/0328202409411818-1.jpg[/img]
[img]http://lookpic.com/cdn/i2/t/0328202409411818-2.jpg[/img]
[img]http://lookpic.com/cdn/i2/t/0328202409411818-3.jpg[/img]

General
Unique ID                                : 303469617193960673037801267978099588787 (0xE44E1F4ED3C53582380A89FD70997EB3)
Complete name                            : Bosch Legacy S02E01 The Lady Vanishes 720p AMZN WEB-DL DDP5 1 H 264-FLUX.mkv
Format                                   : Matroska
Format version                           : Version 4
File size                                : 1.26 GiB
Duration                                 : 46 min 23 s
Overall bit rate                         : 3 900 kb/s
Frame rate                               : 23.976 FPS
Writing application                      : mkvmerge v79.0 ('Funeral Pyres') 64-bit
Writing library                          : libebml v1.4.4 + libmatroska v1.7.1

Video
ID                                       : 1
Format                                   : AVC
Format/Info                              : Advanced Video Codec
Format profile                           : [email protected]
Format settings                          : CABAC / 4 Ref Frames
Format settings, CABAC                   : Yes
Format settings, Reference frames        : 4 frames
Codec ID                                 : V_MPEG4/ISO/AVC
Duration                                 : 46 min 23 s
Bit rate mode                            : Constant
Bit rate                                 : 3 255 kb/s
Nominal bit rate                         : 4 000 kb/s
Width                                    : 1 280 pixels
Height                                   : 720 pixels
Display aspect ratio                     : 16:9
Frame rate mode                          : Constant
Frame rate                               : 23.976 (24000/1001) FPS
Color space                              : YUV
Chroma subsampling                       : 4:2:0
Bit depth                                : 8 bits
Scan type                                : Progressive
Bits/(Pixel*Frame)                       : 0.147
Stream size                              : 1.05 GiB (83%)
Language                                 : English (US)
Default                                  : Yes
Forced                                   : No
Color range                              : Limited
Color primaries                          : BT.709
Transfer characteristics                 : BT.709
Matrix coefficients                      : BT.709

Audio
ID                                       : 2
Format                                   : E-AC-3
Format/Info                              : Enhanced AC-3
Commercial name                          : Dolby Digital Plus
Codec ID                                 : A_EAC3
Duration                                 : 46 min 23 s
Bit rate mode                            : Constant
Bit rate                                 : 640 kb/s
Channel(s)                               : 6 channels
Channel layout                           : L R C LFE Ls Rs
Sampling rate                            : 48.0 kHz
Frame rate                               : 31.250 FPS (1536 SPF)
Compression mode                         : Lossy
Stream size                              : 212 MiB (16%)
Language                                 : English (US)
Service kind                             : Complete Main
Default                                  : Yes
Forced                                   : No

Text #1
ID                                       : 3
Format                                   : UTF-8
Codec ID                                 : S_TEXT/UTF8
Codec ID/Info                            : UTF-8 Plain Text
Duration                                 : 43 min 51 s
Bit rate                                 : 50 b/s
Frame rate                               : 0.187 FPS
Count of elements                        : 493
Stream size                              : 16.2 KiB (0%)
Language                                 : English (US)
Default                                  : No
Forced                                   : No

Text #2
ID                                       : 4
Format                                   : UTF-8
Codec ID                                 : S_TEXT/UTF8
Codec ID/Info                            : UTF-8 Plain Text
Duration                                 : 43 min 57 s
Bit rate                                 : 56 b/s
Frame rate                               : 0.224 FPS
Count of elements                        : 591
Stream size                              : 18.2 KiB (0%)
Title                                    : SDH
Language                                 : English (US)
Default                                  : No
Forced                                   : No

Text #3
ID                                       : 5
Format                                   : UTF-8
Codec ID                                 : S_TEXT/UTF8
Codec ID/Info                            : UTF-8 Plain Text
Duration                                 : 45 min 27 s
Bit rate                                 : 71 b/s
Frame rate                               : 0.142 FPS
Count of elements                        : 387
Stream size                              : 23.7 KiB (0%)
Language                                 : Arabic (001)
Default                                  : No
Forced                                   : No

Text #4
ID                                       : 6
Format                                   : UTF-8
Codec ID                                 : S_TEXT/UTF8
Codec ID/Info                            : UTF-8 Plain Text
Duration                                 : 45 min 27 s
Bit rate                                 : 40 b/s
Frame rate                               : 0.142 FPS
Count of elements                        : 387
Stream size                              : 13.6 KiB (0%)
Language                                 : Czech (CZ)
Default                                  : No
Forced                                   : No

Text #5
ID                                       : 7
Format                                   : UTF-8
Codec ID                                 : S_TEXT/UTF8
Codec ID/Info                            : UTF-8 Plain Text
Duration                                 : 45 min 27 s
Bit rate                                 : 40 b/s
Frame rate                               : 0.142 FPS
Count of elements                        : 386
Stream size                              : 13.4 KiB (0%)
Language                                 : Danish (DK)
Default                                  : No
Forced                                   : No

Text #6
ID                                       : 8
Format                                   : UTF-8
Codec ID                                 : S_TEXT/UTF8
Codec ID/Info                            : UTF-8 Plain Text
Duration                                 : 45 min 27 s
Bit rate                                 : 42 b/s
Frame rate                               : 0.141 FPS
Count of elements                        : 385
Stream size                              : 14.2 KiB (0%)
Language                                 : German (DE)
Default                                  : No
Forced                                   : No

Text #7
ID                                       : 9
Format                                   : UTF-8
Codec ID                                 : S_TEXT/UTF8
Codec ID/Info                            : UTF-8 Plain Text
Duration                                 : 45 min 27 s
Bit rate                                 : 75 b/s
Frame rate                               : 0.142 FPS
Count of elements                        : 387
Stream size                              : 25.0 KiB (0%)
Language                                 : Greek (GR)
Default                                  : No
Forced                                   : No

Text #8
ID                                       : 10
Format                                   : UTF-8
Codec ID                                 : S_TEXT/UTF8
Codec ID/Info                            : UTF-8 Plain Text
Duration                                 : 45 min 27 s
Bit rate                                 : 41 b/s
Frame rate                               : 0.142 FPS
Count of elements                        : 387
Stream size                              : 13.8 KiB (0%)
Title                                    : Latin American
Language                                 : Spanish (Latin America)
Default                                  : No
Forced                                   : No

Text #9
ID                                       : 11
Format                                   : UTF-8
Codec ID                                 : S_TEXT/UTF8
Codec ID/Info                            : UTF-8 Plain Text
Duration                                 : 45 min 27 s
Bit rate                                 : 42 b/s
Frame rate                               : 0.142 FPS
Count of elements                        : 387
Stream size                              : 14.1 KiB (0%)
Language                                 : Spanish (ES)
Default                                  : No
Forced                                   : No

Text #10
ID                                       : 12
Format                                   : UTF-8
Codec ID                                 : S_TEXT/UTF8
Codec ID/Info                            : UTF-8 Plain Text
Duration                                 : 45 min 27 s
Bit rate                                 : 39 b/s
Frame rate                               : 0.141 FPS
Count of elements                        : 385
Stream size                              : 13.1 KiB (0%)
Language                                 : Finnish (FI)
Default                                  : No
Forced                                   : No

Text #11
ID                                       : 13
Format                                   : UTF-8
Codec ID                                 : S_TEXT/UTF8
Codec ID/Info                            : UTF-8 Plain Text
Duration                                 : 45 min 27 s
Bit rate                                 : 46 b/s
Frame rate                               : 0.142 FPS
Count of elements                        : 386
Stream size                              : 15.4 KiB (0%)
Language                                 : Filipino (PH)
Default                                  : No
Forced                                   : No

Text #12
ID                                       : 14
Format                                   : UTF-8
Codec ID                                 : S_TEXT/UTF8
Codec ID/Info                            : UTF-8 Plain Text
Duration                                 : 45 min 27 s
Bit rate                                 : 40 b/s
Frame rate                               : 0.142 FPS
Count of elements                        : 387
Stream size                              : 13.5 KiB (0%)
Language                                 : French (FR)
Default                                  : No
Forced                                   : No

Text #13
ID                                       : 15
Format                                   : UTF-8
Codec ID                                 : S_TEXT/UTF8
Codec ID/Info                            : UTF-8 Plain Text
Duration                                 : 45 min 27 s
Bit rate                                 : 68 b/s
Frame rate                               : 0.142 FPS
Count of elements                        : 387
Stream size                              : 22.7 KiB (0%)
Language                                 : Hebrew (IL)
Default                                  : No
Forced                                   : No

Text #14
ID                                       : 16
Format                                   : UTF-8
Codec ID                                 : S_TEXT/UTF8
Codec ID/Info                            : UTF-8 Plain Text
Duration                                 : 45 min 27 s
Bit rate                                 : 102 b/s
Frame rate                               : 0.142 FPS
Count of elements                        : 387
Stream size                              : 34.0 KiB (0%)
Language                                 : Hindi (IN)
Default                                  : No
Forced                                   : No

Text #15
ID                                       : 17
Format                                   : UTF-8
Codec ID                                 : S_TEXT/UTF8
Codec ID/Info                            : UTF-8 Plain Text
Duration                                 : 45 min 27 s
Bit rate                                 : 42 b/s
Frame rate                               : 0.142 FPS
Count of elements                        : 387
Stream size                              : 14.1 KiB (0%)
Language                                 : Hungarian (HU)
Default                                  : No
Forced                                   : No

Text #16
ID                                       : 18
Format                                   : UTF-8
Codec ID                                 : S_TEXT/UTF8
Codec ID/Info                            : UTF-8 Plain Text
Duration                                 : 45 min 27 s
Bit rate                                 : 41 b/s
Frame rate                               : 0.142 FPS
Count of elements                        : 387
Stream size                              : 13.9 KiB (0%)
Language                                 : Indonesian (ID)
Default                                  : No
Forced                                   : No

Text #17
ID                                       : 19
Format                                   : UTF-8
Codec ID                                 : S_TEXT/UTF8
Codec ID/Info                            : UTF-8 Plain Text
Duration                                 : 45 min 27 s
Bit rate                                 : 41 b/s
Frame rate                               : 0.142 FPS
Count of elements                        : 388
Stream size                              : 13.9 KiB (0%)
Language                                 : Italian (IT)
Default                                  : No
Forced                                   : No

Text #18
ID                                       : 20
Format                                   : UTF-8
Codec ID                                 : S_TEXT/UTF8
Codec ID/Info                            : UTF-8 Plain Text
Duration                                 : 45 min 27 s
Bit rate                                 : 32 b/s
Frame rate                               : 0.162 FPS
Count of elements                        : 443
Stream size                              : 10.7 KiB (0%)
Language                                 : Japanese (JP)
Default                                  : No
Forced                                   : No

Text #19
ID                                       : 21
Format                                   : UTF-8
Codec ID                                 : S_TEXT/UTF8
Codec ID/Info                            : UTF-8 Plain Text
Duration                                 : 45 min 27 s
Bit rate                                 : 41 b/s
Frame rate                               : 0.143 FPS
Count of elements                        : 389
Stream size                              : 13.7 KiB (0%)
Language                                 : Korean (KR)
Default                                  : No
Forced                                   : No

Text #20
ID                                       : 22
Format                                   : UTF-8
Codec ID                                 : S_TEXT/UTF8
Codec ID/Info                            : UTF-8 Plain Text
Duration                                 : 45 min 27 s
Bit rate                                 : 41 b/s
Frame rate                               : 0.142 FPS
Count of elements                        : 387
Stream size                              : 13.7 KiB (0%)
Language                                 : Malay (MY)
Default                                  : No
Forced                                   : No

Text #21
ID                                       : 23
Format                                   : UTF-8
Codec ID                                 : S_TEXT/UTF8
Codec ID/Info                            : UTF-8 Plain Text
Duration                                 : 45 min 27 s
Bit rate                                 : 40 b/s
Frame rate                               : 0.142 FPS
Count of elements                        : 386
Stream size                              : 13.4 KiB (0%)
Language                                 : Norwegian Bokmal (NO)
Default                                  : No
Forced                                   : No

Text #22
ID                                       : 24
Format                                   : UTF-8
Codec ID                                 : S_TEXT/UTF8
Codec ID/Info                            : UTF-8 Plain Text
Duration                                 : 45 min 27 s
Bit rate                                 : 40 b/s
Frame rate                               : 0.141 FPS
Count of elements                        : 385
Stream size                              : 13.4 KiB (0%)
Language                                 : Dutch (NL)
Default                                  : No
Forced                                   : No

Text #23
ID                                       : 25
Format                                   : UTF-8
Codec ID                                 : S_TEXT/UTF8
Codec ID/Info                            : UTF-8 Plain Text
Duration                                 : 45 min 27 s
Bit rate                                 : 38 b/s
Frame rate                               : 0.141 FPS
Count of elements                        : 384
Stream size                              : 12.7 KiB (0%)
Language                                 : Polish (PL)
Default                                  : No
Forced                                   : No

Text #24
ID                                       : 26
Format                                   : UTF-8
Codec ID                                 : S_TEXT/UTF8
Codec ID/Info                            : UTF-8 Plain Text
Duration                                 : 45 min 27 s
Bit rate                                 : 42 b/s
Frame rate                               : 0.142 FPS
Count of elements                        : 387
Stream size                              : 14.1 KiB (0%)
Title                                    : Brazilian
Language                                 : Portuguese (BR)
Default                                  : No
Forced                                   : No

Text #25
ID                                       : 27
Format                                   : UTF-8
Codec ID                                 : S_TEXT/UTF8
Codec ID/Info                            : UTF-8 Plain Text
Duration                                 : 45 min 27 s
Bit rate                                 : 42 b/s
Frame rate                               : 0.142 FPS
Count of elements                        : 387
Stream size                              : 14.1 KiB (0%)
Language                                 : Portuguese (PT)
Default                                  : No
Forced                                   : No

Text #26
ID                                       : 28
Format                                   : UTF-8
Codec ID                                 : S_TEXT/UTF8
Codec ID/Info                            : UTF-8 Plain Text
Duration                                 : 45 min 27 s
Bit rate                                 : 43 b/s
Frame rate                               : 0.142 FPS
Count of elements                        : 387
Stream size                              : 14.3 KiB (0%)
Language                                 : Romanian (RO)
Default                                  : No
Forced                                   : No

Text #27
ID                                       : 29
Format                                   : UTF-8
Codec ID                                 : S_TEXT/UTF8
Codec ID/Info                            : UTF-8 Plain Text
Duration                                 : 45 min 27 s
Bit rate                                 : 69 b/s
Frame rate                               : 0.143 FPS
Count of elements                        : 389
Stream size                              : 23.2 KiB (0%)
Language                                 : Russian (RU)
Default                                  : No
Forced                                   : No

Text #28
ID                                       : 30
Format                                   : UTF-8
Codec ID                                 : S_TEXT/UTF8
Codec ID/Info                            : UTF-8 Plain Text
Duration                                 : 45 min 27 s
Bit rate                                 : 42 b/s
Frame rate                               : 0.141 FPS
Count of elements                        : 384
Stream size                              : 14.0 KiB (0%)
Language                                 : Swedish (SE)
Default                                  : No
Forced                                   : No

Text #29
ID                                       : 31
Format                                   : UTF-8
Codec ID                                 : S_TEXT/UTF8
Codec ID/Info                            : UTF-8 Plain Text
Duration                                 : 45 min 27 s
Bit rate                                 : 108 b/s
Frame rate                               : 0.142 FPS
Count of elements                        : 388
Stream size                              : 36.0 KiB (0%)
Language                                 : Tamil (IN)
Default                                  : No
Forced                                   : No

Text #30
ID                                       : 32
Format                                   : UTF-8
Codec ID                                 : S_TEXT/UTF8
Codec ID/Info                            : UTF-8 Plain Text
Duration                                 : 45 min 27 s
Bit rate                                 : 99 b/s
Frame rate                               : 0.142 FPS
Count of elements                        : 388
Stream size                              : 33.1 KiB (0%)
Language                                 : Telugu (IN)
Default                                  : No
Forced                                   : No

Text #31
ID                                       : 33
Format                                   : UTF-8
Codec ID                                 : S_TEXT/UTF8
Codec ID/Info                            : UTF-8 Plain Text
Duration                                 : 45 min 27 s
Bit rate                                 : 103 b/s
Frame rate                               : 0.142 FPS
Count of elements                        : 387
Stream size                              : 34.4 KiB (0%)
Language                                 : Thai (TH)
Default                                  : No
Forced                                   : No

Text #32
ID                                       : 34
Format                                   : UTF-8
Codec ID                                 : S_TEXT/UTF8
Codec ID/Info                            : UTF-8 Plain Text
Duration                                 : 45 min 27 s
Bit rate                                 : 43 b/s
Frame rate                               : 0.143 FPS
Count of elements                        : 389
Stream size                              : 14.4 KiB (0%)
Language                                 : Turkish (TR)
Default                                  : No
Forced                                   : No

Text #33
ID                                       : 35
Format                                   : UTF-8
Codec ID                                 : S_TEXT/UTF8
Codec ID/Info                            : UTF-8 Plain Text
Duration                                 : 45 min 27 s
Bit rate                                 : 65 b/s
Frame rate                               : 0.142 FPS
Count of elements                        : 388
Stream size                              : 21.8 KiB (0%)
Title                                    : Ukraine
Language                                 : Ukrainian (UA)
Default                                  : No
Forced                                   : No

Text #34
ID                                       : 36
Format                                   : UTF-8
Codec ID                                 : S_TEXT/UTF8
Codec ID/Info                            : UTF-8 Plain Text
Duration                                 : 45 min 27 s
Bit rate                                 : 51 b/s
Frame rate                               : 0.143 FPS
Count of elements                        : 389
Stream size                              : 17.3 KiB (0%)
Title                                    : Vietnam
Language                                 : Vietnamese (VN)
Default                                  : No
Forced                                   : No

Text #35
ID                                       : 37
Format                                   : UTF-8
Codec ID                                 : S_TEXT/UTF8
Codec ID/Info                            : UTF-8 Plain Text
Duration                                 : 45 min 27 s
Bit rate                                 : 40 b/s
Frame rate                               : 0.143 FPS
Count of elements                        : 389
Stream size                              : 13.4 KiB (0%)
Title                                    : Simplified
Language                                 : Chinese (Simplified)
Default                                  : No
Forced                                   : No

Text #36
ID                                       : 38
Format                                   : UTF-8
Codec ID                                 : S_TEXT/UTF8
Codec ID/Info                            : UTF-8 Plain Text
Duration                                 : 45 min 27 s
Bit rate                                 : 38 b/s
Frame rate                               : 0.142 FPS
Count of elements                        : 387
Stream size                              : 13.0 KiB (0%)
Title                                    : Traditional
Language                                 : Chinese (Traditional)
Default                                  : No
Forced                                   : No

Menu
00:00:00.000                             : en:Prime Video
00:00:06.000                             : en:Scene 2
00:00:13.000                             : en:Previously On
00:00:53.000                             : en:Scene 4
00:04:23.000                             : en:Opening Credits
00:05:15.000                             : en:Title Sequence
00:05:24.000                             : en:Scene 7
00:06:36.000                             : en:Scene 8
00:07:12.000                             : en:Scene 9
00:07:52.000                             : en:Scene 10
00:09:14.000                             : en:Scene 11
00:09:58.000                             : en:Scene 12
00:10:44.000                             : en:Scene 13
00:11:55.000                             : en:Scene 14
00:12:17.000                             : en:Scene 15
00:13:22.000                             : en:Scene 16
00:14:15.000                             : en:Scene 17
00:15:48.000                             : en:Scene 18
00:16:20.000                             : en:Scene 19
00:16:58.000                             : en:Scene 20
00:17:33.000                             : en:Scene 21
00:18:20.000                             : en:Scene 22
00:20:08.000                             : en:Scene 23
00:22:00.000                             : en:Scene 24
00:22:23.000                             : en:Scene 25
00:23:44.000                             : en:Scene 26
00:25:00.000                             : en:Scene 27
00:25:24.000                             : en:Scene 28
00:25:45.000                             : en:Scene 29
00:26:05.000                             : en:Scene 30
00:27:15.000                             : en:Scene 31
00:27:55.000                             : en:Scene 32
00:29:14.000                             : en:Scene 33
00:29:37.000                             : en:Scene 34
00:30:35.000                             : en:Scene 35
00:31:14.000                             : en:Scene 36
00:31:53.000                             : en:Scene 37
00:32:23.000                             : en:Scene 38
00:33:07.000                             : en:Scene 39
00:33:40.000                             : en:Scene 40
00:34:48.000                             : en:Scene 41
00:35:35.000                             : en:Scene 42
00:36:09.000                             : en:Scene 43
00:37:07.000                             : en:Scene 44
00:37:45.000                             : en:Scene 45
00:39:00.000                             : en:Scene 46
00:39:35.000                             : en:Scene 47
00:40:59.000                             : en:Scene 48
00:41:40.000                             : en:Scene 49
00:42:37.000                             : en:Scene 50
00:43:35.000                             : en:Next On
00:44:08.000                             : en:End Credits



Download
File Container: MKV
Video/Audio Codec: H264 (HIGH) EAC3
Video Resolution: 1280x720
Please Login to post a comment.
If you don't have any account, please Register.
  • Subscribe my Feeds
  • Facebook
Encoding Queue:  x264  x265

Latest Episodes

Popular Movies and TV Shows

  • The Great North
  • Dune: Part Two
  • Sullivan's Crossing
  • Grimsburg
  • Island of Lemurs: Madagascar
  • To Die For
  • Beacon 23
  • Guardians of the Galaxy Vol. 3
  • The Channel
  • Trinket Box
  • Hazbin Hotel
  • Bravo, tata!
  • Shogun
  • Parish
  • Saturday Night Live
  • The Taste of Things
  • Legend of the Lost Locket
  • Fantastic Four: Rise of the Silver Surfer
  • Fallout
  • Grey's Anatomy
  • Immoral Women
  • S.W.A.T.
  • Willow
  • Scrambled
  • FBI

Recent Comments

  • mentalityx:

    Rad bloke

  • DownloadHostInspector:

    so far these RMTeam uploads always have a working link. DownloadHostInspector approved!

  • DownloadHostInspector:

    ah yes, this upload has a host that works. clicknupload. DownloadHostInspector approved!

  • DownloadHostInspector: Why are all the download hosts trash? none of them let you download it
  • Qua4ratic:

    clicknupload link plz

  • ppoo:

    Please, can you add "Real Time with Bill Maher S22E11" ??

  • theahtisham:

    Kindly upload Ep. 3 and 4 as well.

  • Kudzu: Update on sound issue, File's codec info says stereo but is only a the left channel If I switch i...
  • Admin:

    kang
    Getting error while encoding, sorry

Archives