Sign Up   |   Sign In  
The Bold and the BeautifulI Saw the TV GlowThe Big CigarC*A*U*G*H*TThe PrestigeNotas sobre un veranoYoung SheldonBridgertonGoodbye Uncle TomModern FamilyAssimilateLSD 2: Love, Sex Aur Dhokha 2The BoysWWE NXTWalkerBratsMower MinionsFentasyEvilCriminal MindsThe AcolyteIn the Line of FireThe Artifice GirlCabriniThe Daily Show

Announcements

05/17

2024

1

Comments

A Gentleman in Moscow S01E08 Adieu 1080p PMTP WEB-DL DDP5 1 x264-NTb
[RR/NF/CU]
Size: 1.7GB mkv H264 (HIGH) / EAC3  HD  1920x1080

A Gentleman in Moscow
File Information
[img]http://lookpic.com/cdn/i2/t/0517202408241387-1.jpg[/img]
[img]http://lookpic.com/cdn/i2/t/0517202408241387-2.jpg[/img]
[img]http://lookpic.com/cdn/i2/t/0517202408241387-3.jpg[/img]

General
Unique ID                                : 55396003399711630683915118461307726690 (0x29ACE1D6334B11FBE6960E3452322B62)
Complete name                            : A Gentleman in Moscow S01E08 Adieu 1080p PMTP WEB-DL DDP5 1 x264-NTb.mkv
Format                                   : Matroska
Format version                           : Version 4
File size                                : 1.68 GiB
Duration                                 : 47 min 45 s
Overall bit rate                         : 5 032 kb/s
Frame rate                               : 23.976 FPS
Writing application                      : mkvmerge v84.0 ('Sleeper') 64-bit
Writing library                          : libebml v1.4.5 + libmatroska v1.7.1

Video
ID                                       : 1
Format                                   : AVC
Format/Info                              : Advanced Video Codec
Format profile                           : High@L4
Format settings                          : CABAC / 4 Ref Frames
Format settings, CABAC                   : Yes
Format settings, Reference frames        : 4 frames
Codec ID                                 : V_MPEG4/ISO/AVC
Duration                                 : 47 min 45 s
Bit rate                                 : 4 500 kb/s
Width                                    : 1 920 pixels
Height                                   : 1 080 pixels
Display aspect ratio                     : 16:9
Frame rate mode                          : Constant
Frame rate                               : 23.976 (24000/1001) FPS
Color space                              : YUV
Chroma subsampling                       : 4:2:0
Bit depth                                : 8 bits
Scan type                                : Progressive
Bits/(Pixel*Frame)                       : 0.091
Stream size                              : 1.46 GiB (87%)
Writing library                          : x264 core 164 r3107 a8b68eb
 Encoding settings                        : cabac=1 / ref=4 / deblock=1:0:0 / analyse=0x3:0x113 / me=hex / subme=8 / psy=1 / psy_rd=1.00:0.00 / mixed_ref=1 / me_range=16 / chroma_me=1 / trellis=2 / 8x8dct=1 / cqm=0 / deadz / fast pskip=1 / chroma_qp_offset=-2 / threads=12 / lookahead_threads=2 / sliced_threads=0 / nr=0 / decimate=1 / interlaced=0 / bluray_compat=0 / stitchable=1 / c / bframes=3 / b_pyramid=2 / b_adapt=1 / b_bias=0 / direct=3 / weightb=1 / open_gop=0 / weightp=2 / keyint=48 / keyint_min=4 / scenecut=0 / intra_refresh=0 / rc_lookahead=48 / rc=2pass / mbtree=1 / bitrate=4500 / ratetol=1.0 / qcomp=0.60 / qpmin=0 / qpmax=69 / qpstep=4 / cplxblur=20.0 / qblur=0.5 / vbv_maxrate=5400 / vbv_bufsize=4500 / nal_hrd=none / filler=0 / ip_ratio=1.40 / aq=1:1.00
Default                                  : Yes
Forced                                   : No
Color range                              : Limited
Matrix coefficients                      : BT.709

Audio
ID                                       : 2
Format                                   : E-AC-3
Format/Info                              : Enhanced AC-3
Commercial name                          : Dolby Digital Plus
Codec ID                                 : A_EAC3
Duration                                 : 47 min 45 s
Bit rate mode                            : Constant
Bit rate                                 : 640 kb/s
Channel(s)                               : 6 channels
Channel layout                           : L R C LFE Ls Rs
Sampling rate                            : 48.0 kHz
Frame rate                               : 31.250 FPS (1536 SPF)
Compression mode                         : Lossy
Stream size                              : 219 MiB (13%)
Language                                 : English
Service kind                             : Complete Main
Default                                  : Yes
Forced                                   : No

Text #1
ID                                       : 3
Format                                   : UTF-8
Codec ID                                 : S_TEXT/UTF8
Codec ID/Info                            : UTF-8 Plain Text
Duration                                 : 45 min 49 s
Bit rate                                 : 54 b/s
Frame rate                               : 0.213 FPS
Count of elements                        : 587
Stream size                              : 18.2 KiB (0%)
Language                                 : English (US)
Default                                  : No
Forced                                   : No

Text #2
ID                                       : 4
Format                                   : UTF-8
Codec ID                                 : S_TEXT/UTF8
Codec ID/Info                            : UTF-8 Plain Text
Duration                                 : 46 min 44 s
Bit rate                                 : 59 b/s
Frame rate                               : 0.243 FPS
Count of elements                        : 682
Stream size                              : 20.4 KiB (0%)
Title                                    : SDH
Language                                 : English (US)
Default                                  : No
Forced                                   : No

Menu
00:00:00.000                             : Recap
00:00:53.000                             : Chapter 1
00:01:44.000                             : Intro
00:02:25.000                             : Chapter 2



Download
File Container: MKV
Video/Audio Codec: H264 (HIGH) EAC3
Video Resolution: 1920x1080

1 Response to "[RR/NF/CU] A Gentleman in Moscow S01E08 Adieu 1080p PMTP WEB-DL DDP5 1 x264-NTb (1.7GB)"
05/17/24
09:30:27
ReadyPlayerOne

Thank You

Please Login to post a comment.
If you don't have any account, please Register.
  • Subscribe my Feeds
  • Facebook
Encoding Queue:  x264  x265

Latest Episodes

Popular Movies and TV Shows

  • The Bold and the Beautiful
  • I Saw the TV Glow
  • The Big Cigar
  • C*A*U*G*H*T
  • The Prestige
  • Notas sobre un verano
  • Young Sheldon
  • Bridgerton
  • Goodbye Uncle Tom
  • Modern Family
  • Assimilate
  • LSD 2: Love, Sex Aur Dhokha 2
  • The Boys
  • WWE NXT
  • Walker
  • Brats
  • Mower Minions
  • Fentasy
  • Evil
  • Criminal Minds
  • The Acolyte
  • In the Line of Fire
  • The Artifice Girl
  • Cabrini
  • The Daily Show

Recent Comments

Archives